Obsah fóra www.lamky.net

lamky.net banner
Registrácia  •  Prihlásenie
 Assassin's Creed (2016) Zobraziť nasledujúcu tému
Zobraziť predchádzajúcu tému

Pridat tému do záložiek
Odpovedať na tému Thank Post
Autor Správa
Humko   
Moderátor


Založený: 12.01.2006
Príspevky: 349
SMS donate: 0
Bydlisko: Trenčín

PríspevokZaslal: Po Mar 13, 2017 15:32 pm Odpovedať s citátomCelkom dole

Assassin's Creed / EN / CZ Titulky

Release : Assassins.Creed.2016.720p.WEBRip.x264.AAC-ETRG

CSFD :


Linky sa zobrazia až po prihlásení. Prihlás sa
Chces vidieť plný obsah a nie si zaregistrovaný? Zaregistruj sa


Image

info :

Citácia:
Velkosť : 948mb
Jazyk : EN
Titulky : CZ
Audio : AAC
Súbor : .zip


Download :


Linky sa zobrazia až po prihlásení. Prihlás sa
Chces vidieť plný obsah a nie si zaregistrovaný? Zaregistruj sa


No PASS !!!
Zobrazit informácie o autoroviOdoslať súkromnú správu
Podakovania: codec, je vdačný za túto tému.
Meken   
Moderátor


Založený: 02.11.2006
Príspevky: 189
SMS donate: 0
Bydlisko: LM

PríspevokZaslal: Po Mar 13, 2017 19:53 pm Odpovedať s citátomCelkom dole

Assassin’s Creed (2016)

Assassins.Creed.2016.DVDRip.XviD.AC3-iFT + CZ titulky

Image

Info o filme:
Linky sa zobrazia až po prihlásení. Prihlás sa
Chces vidieť plný obsah a nie si zaregistrovaný? Zaregistruj sa



Citácia:
Format : AVI
Format/Info : Audio Video Interleave
File size : 1.91 GiB
Duration : 1h 55mn
Overall bit rate : 2 371 Kbps
Writing application : VirtualDubMod 1.5.10.2 (build 2540/release)
Writing library : VirtualDubMod build 2540/release

Video
ID : 0
Format : MPEG-4 Visual
Codec ID : XVID
Codec ID/Hint : XviD
Duration : 1h 55mn
Bit rate : 1 820 Kbps
Width : 720 pixels
Height : 304 pixels
Display aspect ratio : 2.35:1
Frame rate : 23.976 fps
Color space : YUV
Chroma subsampling : 4:2:0
Compression mode : Lossy
Bits/(Pixel*Frame) : 0.347
Stream size : 1.47 GiB (77%)

Audio
ID : 1
Format : AC-3
Format/Info : Audio Coding 3
Codec ID : 2000
Duration : 1h 55mn
Bit rate mode : Constant
Bit rate : 448 Kbps
Channel(s) : 6 channels
Sampling rate : 48.0 KHz
Compression mode : Lossy
Stream size : 370 MiB (19%)
Alignment : Aligned on interleaves




Linky sa zobrazia až po prihlásení. Prihlás sa
Chces vidieť plný obsah a nie si zaregistrovaný? Zaregistruj sa


Linky sa zobrazia až po prihlásení. Prihlás sa
Chces vidieť plný obsah a nie si zaregistrovaný? Zaregistruj sa


.
Zobrazit informácie o autoroviOdoslať súkromnú správuOdoslať e-mail
kellyland   
Nováčik


Založený: 24.12.2005
Príspevky: 48
SMS donate: 0
Bydlisko: C:Documents and settings/Kellyland/Veža/3/poschodie

PríspevokZaslal: Ne Mar 19, 2017 20:51 pm Odpovedať s citátomCelkom dole

720p.BluRay.x264.VPPV


Linky sa zobrazia až po prihlásení. Prihlás sa
Chces vidieť plný obsah a nie si zaregistrovaný? Zaregistruj sa


Image




Linky sa zobrazia až po prihlásení. Prihlás sa
Chces vidieť plný obsah a nie si zaregistrovaný? Zaregistruj sa



Download:


Linky sa zobrazia až po prihlásení. Prihlás sa
Chces vidieť plný obsah a nie si zaregistrovaný? Zaregistruj sa



Cool
Zobrazit informácie o autoroviOdoslať súkromnú správuICQ
Sťahuj z HELLSHARE neobmedzene bez premium účtu!
Zobraziť príspevky z predchádzajúcich:      
Odpovedať na tému Thank Post


 Prejdi na:   



Zobraziť nasledujúcu tému
Zobraziť predchádzajúcu tému
Nemôžete odosielať nové témy do tohto fóra
Nemôžete odpovedať na témy v tomto fóre
Nemôžete upravovať svoje príspevky v tomto fóre
Nemôžete mazať svoje príspevky v tomto fóre
Nemôžete hlasovať v tomto fóre


Upozornenie: Žiadny zo zobrazovaných súborov sa nenachádza na tomto serveri. Autor stránky neberie žiadnu zodpovednost za príspevky odoslané uživatelmi. Nepoužívajte tieto stránky k distribúcii alebo k downloadu akýchkolvek materiálov, ku ktorým nemáte legálne opravnenie alebo licenciu. Všetky príspevky sem vkladáte na vlastnú zodpovednost. Autor stránky odmieta akúkolvek zodpovednost za prípadne porušovanie zákonov. Kopírovanie obsahu bez písomného súhlasu autora stránky je trestné.
V prípade, že ste narazili na nelegálny obsah prosím okamžite kontaktujte administrátora portálu.



Powered by phpBB © 2005 phpBB Group :: Časy uvádzané v GMT + 1 hodina
[ Nacítanie: 0.1s ] :: [ 22 Queries ] :: [ 31,603 stránok za dnes ] :: [ Dnes DB: 588,604 ] :: [ Max DB: 13,059,503 ]