Obsah fóra www.lamky.net

lamky.net banner
Registrácia  •  Prihlásenie
 Harry Potter a Ohnivá čaša / HP4: Goblet of Fire / 2005 Zobraziť nasledujúcu tému
Zobraziť predchádzajúcu tému

Pridat tému do záložiek
Odpovedať na tému Thank Post
Autor Správa
pablos33   
Nováčik


Založený: 30.05.2010
Príspevky: 69
SMS donate: 3

PríspevokZaslal: St Apr 27, 2011 22:12 pm Odpovedať s citátomCelkom dole

NÁZEV
Harry Potter a Ohnivý Pohár / Harry Potter and the Goblet of Fire (2005)
DVD.rip.cz
COVER
Image

CSFD

Linky sa zobrazia až po prihlásení. Prihlás sa
Chces vidieť plný obsah a nie si zaregistrovaný? Zaregistruj sa


QUALITY
Citácia:
Format : AVI
Format/Info : Audio Video Interleave
File size : 699 MiB
Duration : 2h 17mn
Overall bit rate : 708 Kbps
Video
Format : MPEG-4 Visual
Format profile : Streaming Video@L1
Format settings, BVOP : Yes
Format settings, QPel : No
Format settings, GMC : No warppoints
Format settings, Matrix : Default
Muxing mode : Packed bitstream
Codec ID : XVID
Codec ID/Hint : XviD
Duration : 2h 17mn
Bit rate : 603 Kbps
Width : 720 pixels
Height : 288 pixels
Display aspect ratio : 2.500
Frame rate : 25.000 fps
Resolution : 24 bits
Colorimetry : 4:2:0
Scan type : Progressive
Bits/(Pixel*Frame) : 0.116
Stream size : 594 MiB (85%)
Writing library : XviD 1.2.0.dev47 (UTC 2006-11-01)

Audio
Format : MPEG Audio
Format version : Version 1
Format profile : Layer 3
Codec ID : 55
Codec ID/Hint : MP3
Duration : 2h 17mn
Bit rate mode : Constant
Bit rate : 96.0 Kbps
Minimum bit rate : 96.0 Kbps
Channel(s) : 2 channels
Sampling rate : 48.0 KHz
Resolution : 16 bits
Stream size : 94.7 MiB (14%)
Alignment : Aligned on interleaves
Interleave, duration : 40 ms (1.00 video frame)
Interleave, preload duration : 504 ms
Writing library : LAME3.97
Encoding settings : CBR


HELLSHARE

Linky sa zobrazia až po prihlásení. Prihlás sa
Chces vidieť plný obsah a nie si zaregistrovaný? Zaregistruj sa

SHARERAPID

Linky sa zobrazia až po prihlásení. Prihlás sa
Chces vidieť plný obsah a nie si zaregistrovaný? Zaregistruj sa

EUROSHARE

Linky sa zobrazia až po prihlásení. Prihlás sa
Chces vidieť plný obsah a nie si zaregistrovaný? Zaregistruj sa

MULTISHARE

Linky sa zobrazia až po prihlásení. Prihlás sa
Chces vidieť plný obsah a nie si zaregistrovaný? Zaregistruj sa
Zobrazit informácie o autoroviOdoslať súkromnú správu
Podakovania: katiu, je vdačný za túto tému.
gordian   
Report poster


Založený: 21.09.2009
Príspevky: 450
SMS donate: 0

PríspevokZaslal: St Jún 08, 2011 5:46 am Odpovedať s citátomCelkom dole

Harry Potter a Ohnivý Pohár / Harry Potter and the Goblet of Fire (2005)
DVD.rip.cz

Image

Linky sa zobrazia až po prihlásení. Prihlás sa
Chces vidieť plný obsah a nie si zaregistrovaný? Zaregistruj sa


Format : AVI
Format/Info : Audio Video Interleave
File size : 699 MiB
Duration : 2h 17mn
Overall bit rate : 708 Kbps
Video
Format : MPEG-4 Visual
Format profile : Streaming Video@L1
Format settings, BVOP : Yes
Format settings, QPel : No
Format settings, GMC : No warppoints
Format settings, Matrix : Default
Muxing mode : Packed bitstream
Codec ID : XVID
Codec ID/Hint : XviD
Duration : 2h 17mn
Bit rate : 603 Kbps
Width : 720 pixels
Height : 288 pixels
Display aspect ratio : 2.500
Frame rate : 25.000 fps
Resolution : 24 bits
Colorimetry : 4:2:0
Scan type : Progressive
Bits/(Pixel*Frame) : 0.116
Stream size : 594 MiB (85%)
Writing library : XviD 1.2.0.dev47 (UTC 2006-11-01)

Audio
Format : MPEG Audio
Format version : Version 1
Format profile : Layer 3
Codec ID : 55
Codec ID/Hint : MP3
Duration : 2h 17mn
Bit rate mode : Constant
Bit rate : 96.0 Kbps
Minimum bit rate : 96.0 Kbps
Channel(s) : 2 channels
Sampling rate : 48.0 KHz
Resolution : 16 bits
Stream size : 94.7 MiB (14%)
Alignment : Aligned on interleaves
Interleave, duration : 40 ms (1.00 video frame)
Interleave, preload duration : 504 ms
Writing library : LAME3.97
Encoding settings : CBR



Linky sa zobrazia až po prihlásení. Prihlás sa
Chces vidieť plný obsah a nie si zaregistrovaný? Zaregistruj sa
Zobrazit informácie o autoroviOdoslať súkromnú správuZobraziť autorove WWW stránky
miki7811   
Warezák


Založený: 10.06.2009
Príspevky: 5224
SMS donate: 0

PríspevokZaslal: Po Apr 16, 2012 16:19 pm Odpovedať s citátomCelkom dole

Image

Image

Linky sa zobrazia až po prihlásení. Prihlás sa
Chces vidieť plný obsah a nie si zaregistrovaný? Zaregistruj sa

Citácia:
OBSAH:
Dobrodružný / Drama / Rodinný / Fantasy

Velká Británie / USA, 2005, 157 min
Režie: Mike Newell
Hudba: Patrick Doyle
Hrají: Daniel Radcliffe, Emma Watson, Rupert Grint, Robbie Coltrane, Tom Felton, Michael Gambon, Brendan Gleeson, Jason Isaacs, Alan Rickman, Maggie Smith, Stanislav Ianevski, Predrag Bjelac, Katie Leung, Matthew Lewis, David Tennant, Mark Williams, Timothy Spall, Robert Hardy, Shirley Henderson, Clémence Poésy, Jeff Rawle, Ralph Fiennes, Miranda Richardson, Gary Oldman, Warwick Davis, Frances de la Tour, Geraldine Somerville, Robert Pattinson, Bonnie Wright, Louis Doyle, James Phelps, Oliver Phelps, David Bradley, Roger Lloyd - Pack, Adrian Rawlins, Eric Sykes, Alex Palmer, Jamie Waylett, Devon Murray, Josh Herdman, Alfie Enoch, Jonny Greenwood, Afshan Azad, Shefali Chowdhury, William Melling, Jarvis Cocker

Harryho štvrtý rok na Rockfortskej škole sa celý krúti okolo turnaja, v ktorom sa stretnú študenti troch čarodejníckych škôl v sérii stále náročnejších úloh. Súťažiaci sú vyberaní ohnivou čašou, ktorá tentoraz z Rockfortu vyberie aj Harryho! A aby to všetko nebolo také jednoduché, začína sa hlásiť o slovo aj Voldemort, ktorý je opäť pripravený vrátiť sa!

Image

INFO:
Format : AVI at 1 808 Kbps
Length : 1.90 GiB for 2h 30mn 37s 960ms

Video #0 : MPEG-4 Visual at 1 414 Kbps
Aspect : 720 x 298 (2.416) at 25.000 fps

Audio #0 : AC-3 at 384 Kbps
Infos : 6 channels, 48.0 KHz

Image

Linky sa zobrazia až po prihlásení. Prihlás sa
Chces vidieť plný obsah a nie si zaregistrovaný? Zaregistruj sa
Zobrazit informácie o autoroviOdoslať súkromnú správu
Domigadoz   
Uploader


Založený: 23.03.2007
Príspevky: 201
SMS donate: 0

PríspevokZaslal: Ut Jún 26, 2012 18:36 pm Odpovedať s citátomCelkom dole


Harry Potter a Ohnivý Pohár / Harry Potter and the Goblet of Fire (2005) DVDRIP.XVID.CZ


Image
Image


Image


Linky sa zobrazia až po prihlásení. Prihlás sa
Chces vidieť plný obsah a nie si zaregistrovaný? Zaregistruj sa


Image


Linky sa zobrazia až po prihlásení. Prihlás sa
Chces vidieť plný obsah a nie si zaregistrovaný? Zaregistruj sa



Image


Linky sa zobrazia až po prihlásení. Prihlás sa
Chces vidieť plný obsah a nie si zaregistrovaný? Zaregistruj sa



Image


Linky sa zobrazia až po prihlásení. Prihlás sa
Chces vidieť plný obsah a nie si zaregistrovaný? Zaregistruj sa


or


Linky sa zobrazia až po prihlásení. Prihlás sa
Chces vidieť plný obsah a nie si zaregistrovaný? Zaregistruj sa


or


Linky sa zobrazia až po prihlásení. Prihlás sa
Chces vidieť plný obsah a nie si zaregistrovaný? Zaregistruj sa
Zobrazit informácie o autoroviOdoslať súkromnú správu
sniper00   
Warezák


Založený: 15.08.2009
Príspevky: 274
SMS donate: 0

PríspevokZaslal: So Sep 30, 2017 13:19 pm Odpovedať s citátomCelkom dole

Image


Image

Linky sa zobrazia až po prihlásení. Prihlás sa
Chces vidieť plný obsah a nie si zaregistrovaný? Zaregistruj sa


Image

Linky sa zobrazia až po prihlásení. Prihlás sa
Chces vidieť plný obsah a nie si zaregistrovaný? Zaregistruj sa


Image

Linky sa zobrazia až po prihlásení. Prihlás sa
Chces vidieť plný obsah a nie si zaregistrovaný? Zaregistruj sa


Odporučaný SOFT pre sťahovanie Mojich linkov:
Image

Linky sa zobrazia až po prihlásení. Prihlás sa
Chces vidieť plný obsah a nie si zaregistrovaný? Zaregistruj sa
Zobrazit informácie o autoroviOdoslať súkromnú správuICQ
Sťahuj z HELLSHARE neobmedzene bez premium účtu!
Zobraziť príspevky z predchádzajúcich:      
Odpovedať na tému Thank Post


 Prejdi na:   



Zobraziť nasledujúcu tému
Zobraziť predchádzajúcu tému
Nemôžete odosielať nové témy do tohto fóra
Nemôžete odpovedať na témy v tomto fóre
Nemôžete upravovať svoje príspevky v tomto fóre
Nemôžete mazať svoje príspevky v tomto fóre
Nemôžete hlasovať v tomto fóre


Upozornenie: Žiadny zo zobrazovaných súborov sa nenachádza na tomto serveri. Autor stránky neberie žiadnu zodpovednost za príspevky odoslané uživatelmi. Nepoužívajte tieto stránky k distribúcii alebo k downloadu akýchkolvek materiálov, ku ktorým nemáte legálne opravnenie alebo licenciu. Všetky príspevky sem vkladáte na vlastnú zodpovednost. Autor stránky odmieta akúkolvek zodpovednost za prípadne porušovanie zákonov. Kopírovanie obsahu bez písomného súhlasu autora stránky je trestné.
V prípade, že ste narazili na nelegálny obsah prosím okamžite kontaktujte administrátora portálu.



Powered by phpBB © 2005 phpBB Group :: Časy uvádzané v GMT + 1 hodina
[ Nacítanie: 0.2s ] :: [ 24 Queries ] :: [ 34,263 stránok za dnes ] :: [ Dnes DB: 660,105 ] :: [ Max DB: 13,059,503 ]