Obsah fóra www.lamky.net

lamky.net banner
Registrácia  •  Prihlásenie
 Quantum of Solace (2008) Zobraziť nasledujúcu tému
Zobraziť predchádzajúcu tému

Pridat tému do záložiek
Odpovedať na tému Thank Post
Autor Správa
Beng.D   
Pokročilý


Založený: 21.02.2011
Príspevky: 180
SMS donate: 0

PríspevokZaslal: Ut Apr 05, 2011 17:48 pm Odpovedať s citátomCelkom dole

Quantum of Solace (2008)/cz


Image



Image

Citácia:

Akční / Dobrodružný / Thriller

USA / Velká Británie, 2008, 102 min
Režie:
Marc Forster
Hrají:
Daniel Craig, Olga Kurylenko, Mathieu Amalric, Judi Dench, Giancarlo Giannini, Gemma Arterton, Jeffrey Wright, David Harbour, Jesper Christensen, Anatole Taubman, Rory Kinnear, Tim Pigott-Smith, Joaquín Cosio, Fernando Guillén Cuervo, Jesús Ochoa, Simon Kassianides, Stana Katic, Neil Jackson, Oona Chaplin, Rachel McDowall, Mark Wakeling, Guillermo del Toro, Alfonso CuarónDaniel Craig, Olga Kurylenko, Mathieu Amalric, Judi Dench, Giancarlo Giannini, Gemma Arterton, Jeffrey Wright, David Harbour, Jesper Christensen, Anatole Taubman, Rory Kinnear, Tim Pigott-Smith, Joaquín Cosio, Fernando Guillén Cuervo, Jesús Ochoa, Simon Kassianides, Stana… (více)


Filmem QUANTUM OF SOLACE pokračuje vysokooktanové dobrodružství Jamese Bonda (DANIEL CRAIG) ve filmu CASINO ROYALE. Agent 007, zrazen Vesper, ženou, kterou miloval, bojuje s nutkáním, aby ze své poslední mise učinil osobní misi. Bond, který je odhodlán odhalit pravdu, spolu s M (JUDI DENCH) vyslýchají pana Whitea (JESPER CHRISTENSEN), od kterého se dozví, že organizace, která vydírala Vesper, je mnohem spletitější a nebezpečnější než kdokoli tušil. Soudní zpráva spojí zrádce Mi6 s bankovním účtem na Haiti, kde se Bond díky záměně identity setká s krásnou, ale prudkou Camillou (OLGA KURYLENKO). Je to žena, která touží po své osobní vendetě. Camilla dovede Bonda přímo k Dominicu Greenovi (MATHIEU AMALRIC), bezcitnému obchodníkovi a hlavnímu šéfovi tajemné organizace. Bond se spojí se starými přáteli na poli plném zrady, vražd a podvodu, aby v této bitvě odhalil pravdu. A dostává se blíže k tomu, aby našel muže zodpovědného za zradu Vesper. Musí být o krok napřed před CIA, teroristy a dokonce i M, aby rozpletl hrozivý plán pana Greena a zastavil jeho organizaci.



Image

Linky sa zobrazia až po prihlásení. Prihlás sa
Chces vidieť plný obsah a nie si zaregistrovaný? Zaregistruj sa



Image
Citácia:
Format : Matroska
File size : 9.08 GiB
Duration : 1h 46mn
Overall bit rate : 12.2 Mbps
Movie name : Quantum.of.Solace.1080p.BluRay.x264
Encoded date : UTC 2011-02-18 23:22:44
Writing application : mkvmerge v3.4.0 ('Rapunzel') built on May 15 2010 09:38:20
Writing library : libebml v0.8.0 + libmatroska v0.9.0

Video
ID : 1
Format : AVC
Format/Info : Advanced Video Codec
Format profile : High@L4.1
Format settings, CABAC : Yes
Format settings, ReFrames : 5 frames
Muxing mode : Container profile=Unknown@4.1
Codec ID : V_MPEG4/ISO/AVC
Duration : 1h 46mn
Bit rate : 10.3 Mbps
Width : 1 920 pixels
Height : 800 pixels
Display aspect ratio : 2.40:1
Frame rate : 23.976 fps
Color space : YUV
Chroma subsampling : 4:2:0
Bit depth : 8 bits
Scan type : Progressive
Bits/(Pixel*Frame) : 0.279
Stream size : 7.45 GiB (82%)
Writing library : x264 core 67 r1127 8d82fec
Encoding settings : cabac=1 / ref=5 / deblock=1:0:0 / analyse=0x3:0x113 / me=umh / subme=7 / psy_rd=1.0:0.0 / mixed_ref=1 / me_range=16 / chroma_me=1 / trellis=1 / 8x8dct=1 / cqm=0 / deadzone=21,11 / chroma_qp_offset=-2 / threads=6 / nr=0 / decimate=1 / mbaff=0 / bframes=3 / b_pyramid=1 / b_adapt=1 / b_bias=0 / direct=3 / wpredb=1 / keyint=250 / keyint_min=25 / scenecut=40 / rc=2pass / bitrate=10278 / ratetol=1.0 / qcomp=0.60 / qpmin=10 / qpmax=51 / qpstep=4 / cplxblur=20.0 / qblur=0.5 / ip_ratio=1.40 / pb_ratio=1.30 / aq=1:1.00

Audio #1
ID : 2
Format : AC-3
Format/Info : Audio Coding 3
Mode extension : CM (complete main)
Codec ID : A_AC3
Duration : 1h 46mn
Bit rate mode : Constant
Bit rate : 448 Kbps
Channel(s) : 6 channels
Channel positions : Front: L C R, Side: L R, LFE
Sampling rate : 48.0 KHz
Stream size : 340 MiB (4%)
Language : Czech

Audio #2
ID : 3
Format : DTS
Format/Info : Digital Theater Systems
Codec ID : A_DTS
Duration : 1h 46mn
Bit rate mode : Constant
Bit rate : 1 510 Kbps
Channel(s) : 6 channels
Channel positions : Front: L C R, Side: L R, LFE
Sampling rate : 48.0 KHz
Bit depth : 24 bits
Stream size : 1.12 GiB (12%)
Language : English

Text #1
ID : 4
Format : UTF-8
Codec ID : S_TEXT/UTF8
Codec ID/Info : UTF-8 Plain Text
Language : Czech

Text #2
ID : 5
Format : UTF-8
Codec ID : S_TEXT/UTF8
Codec ID/Info : UTF-8 Plain Text
Language : Czech




Image



Image



Linky sa zobrazia až po prihlásení. Prihlás sa
Chces vidieť plný obsah a nie si zaregistrovaný? Zaregistruj sa



Image


Linky sa zobrazia až po prihlásení. Prihlás sa
Chces vidieť plný obsah a nie si zaregistrovaný? Zaregistruj sa





Image
bez hesla
Zobrazit informácie o autoroviOdoslať súkromnú správu
lepin   
Uploader


Založený: 03.06.2007
Príspevky: 6777
SMS donate: 0

PríspevokZaslal: Ut Máj 08, 2012 21:12 pm Odpovedať s citátomCelkom dole

Quantum of Solace / Quantum of Solace (2008)

Image
Akční / Dobrodružný / Thriller
USA / Velká Británie, 2008, 106 min

Linky sa zobrazia až po prihlásení. Prihlás sa
Chces vidieť plný obsah a nie si zaregistrovaný? Zaregistruj sa

Režie:
Marc Forster
Hudba:
David Arnold
Hrají:
Daniel Craig, Olga Kurylenko, Mathieu Amalric, Judi Dench, Giancarlo Giannini, Gemma Arterton,
Jeffrey Wright, David Harbour, Jesper Christensen, Anatole Taubman, Rory Kinnear, Tim Pigott-Smith,
Joaquín Cosio, Fernando Guillén Cuervo, Jesús Ochoa, Simon Kassianides, Stana Katic, Neil Jackson,
Oona Chaplin, Rachel McDowall, Mark Wakeling, Guillermo del Toro, Alfonso Cuarón,
Lucrezia Lante della Rovere

Obsah:

Filmem QUANTUM OF SOLACE pokračuje vysokooktanové dobrodružství Jamese Bonda (DANIEL CRAIG) ve filmu
CASINO ROYALE. Agent 007, zrazen Vesper, ženou, kterou miloval, bojuje s nutkáním, aby ze své poslední
mise učinil osobní misi. Bond, který je odhodlán odhalit pravdu, spolu s M (JUDI DENCH) vyslýchají pana
Whitea (JESPER CHRISTENSEN), od kterého se dozví, že organizace, která vydírala Vesper, je mnohem
spletitější a nebezpečnější než kdokoli tušil. Soudní zpráva spojí zrádce Mi6 s bankovním účtem na Haiti,
kde se Bond díky záměně identity setká s krásnou, ale prudkou Camillou (OLGA KURYLENKO). Je to žena, která
touží po své osobní vendetě. Camilla dovede Bonda přímo k Dominicu Greenovi (MATHIEU AMALRIC), bezcitnému
obchodníkovi a hlavnímu šéfovi tajemné organizace. Bond se spojí se starými přáteli na poli plném zrady,
vražd a podvodu, aby v této bitvě odhalil pravdu. A dostává se blíže k tomu, aby našel muže zodpovědného
za zradu Vesper. Musí být o krok napřed před CIA, teroristy a dokonce i M, aby rozpletl hrozivý plán pana
Greena a zastavil jeho organizaci.



Citácia:
Velikost: 44.8 GB
CompleteName : QUANTUM_OF_SOLACE_F3
Format : Blu-ray movie
Format_Profile : BD-Java
Duration/String : 5h 2mn
OverallBitRate/String : 14 bps

Video kodek: H.264
Video: 1920x1080, 23.976 fps, H.264, ~28931 kbps
Audio 1 (ENG): DTS-HD HR 5.1, 48 kHz, 24 bit, ~3018 kbps lossless (core: DTS 5.1, 48 kHz, 24 bit, 1536 kbps)
Audio 2 (FRA): DTS 5.1, 48 kHz, 24 bit, 768 kbps
Audio 3 (RUS): DTS 5.1, 48 kHz, 24 bit, 768 kbps
Audio 4 (CES): DD 5.1, 48 kHz, 448 kbps
Audio 5 (HUN): DD 5.1, 48 kHz, 448 kbps
Audio 6 (POL): DD 5.1, 48 kHz, 448 kbps
Audio 7 (TUR): DD 5.1, 48 kHz, 448 kbps
Audio 8 (UKR): DD 5.1, 48 kHz, 448 kbps



ImageSpojit Total Commanderem
Image

fastshare

Linky sa zobrazia až po prihlásení. Prihlás sa
Chces vidieť plný obsah a nie si zaregistrovaný? Zaregistruj sa

hellshare

Linky sa zobrazia až po prihlásení. Prihlás sa
Chces vidieť plný obsah a nie si zaregistrovaný? Zaregistruj sa

share-rapid


Linky sa zobrazia až po prihlásení. Prihlás sa
Chces vidieť plný obsah a nie si zaregistrovaný? Zaregistruj sa


Linky jsou kombinovatelné
PODĚKOVÁNÍ VÁM NEUBLÍŽÍ A MĚ MOTIVUJE
Jak předejít infarktu?Poslat do řiti každého dřív,než Tě nasere,,,
enjoy_by_lepin
Image
Image
Zobrazit informácie o autoroviOdoslať súkromnú správu
Sťahuj z HELLSHARE neobmedzene bez premium účtu!
Zobraziť príspevky z predchádzajúcich:      
Odpovedať na tému Thank Post


 Prejdi na:   



Zobraziť nasledujúcu tému
Zobraziť predchádzajúcu tému
Nemôžete odosielať nové témy do tohto fóra
Nemôžete odpovedať na témy v tomto fóre
Nemôžete upravovať svoje príspevky v tomto fóre
Nemôžete mazať svoje príspevky v tomto fóre
Nemôžete hlasovať v tomto fóre


Upozornenie: Žiadny zo zobrazovaných súborov sa nenachádza na tomto serveri. Autor stránky neberie žiadnu zodpovednost za príspevky odoslané uživatelmi. Nepoužívajte tieto stránky k distribúcii alebo k downloadu akýchkolvek materiálov, ku ktorým nemáte legálne opravnenie alebo licenciu. Všetky príspevky sem vkladáte na vlastnú zodpovednost. Autor stránky odmieta akúkolvek zodpovednost za prípadne porušovanie zákonov. Kopírovanie obsahu bez písomného súhlasu autora stránky je trestné.
V prípade, že ste narazili na nelegálny obsah prosím okamžite kontaktujte administrátora portálu.



Powered by phpBB © 2005 phpBB Group :: Časy uvádzané v GMT + 1 hodina
[ Nacítanie: 0.2s ] :: [ 22 Queries ] :: [ 31,189 stránok za dnes ] :: [ Dnes DB: 553,684 ] :: [ Max DB: 13,059,503 ]