Obsah fóra www.lamky.net

lamky.net banner
Registrácia  •  Prihlásenie
 Filmy na mobil Zobraziť nasledujúcu tému
Zobraziť predchádzajúcu tému

Pridat tému do záložiek
Odpovedať na tému Thank Post
Autor Správa
willy4400   
Warezák


Založený: 24.09.2007
Príspevky: 2367
SMS donate: 0

PríspevokZaslal: Pi Nov 07, 2008 18:21 pm Odpovedať s citátomCelkom dole

Hancock./Cz./.3Gp.(2008)


Image

Drama / Akční / Fantasy / Komedie
USA, 2008, 92 min
Režie: Peter Berg
Hrají: Will Smith, Charlize Theron, Jason Bateman, Daeg Faerch,
Darrell Foster,
Eddie Marsan, Johnny Galecki,
Martin Klebba, Mike Epps


Linky sa zobrazia až po prihlásení. Prihlás sa
Chces vidieť plný obsah a nie si zaregistrovaný? Zaregistruj sa



velikost: 172,2.Mb
zvuk: 2,0.ch./CZ./
320x240 3gp
****

Image
DOWNLOAD:
Kód:


Linky sa zobrazia až po prihlásení. Prihlás sa
Chces vidieť plný obsah a nie si zaregistrovaný? Zaregistruj sa



Linky sa zobrazia až po prihlásení. Prihlás sa
Chces vidieť plný obsah a nie si zaregistrovaný? Zaregistruj sa


Bez hesla.

Linky sa zobrazia až po prihlásení. Prihlás sa
Chces vidieť plný obsah a nie si zaregistrovaný? Zaregistruj sa
Zobrazit informácie o autoroviOdoslať súkromnú správuICQ
Podakovania: LolopelS, orim, tina1, Pe3cek, Rayden, d3KO, jose01, misko2114, cucko, icemarek, htmlcode, dimple, joshi, ikar1968, bazosk, cikyno, sú vdační za túto tému.
willy4400   
Warezák


Založený: 24.09.2007
Príspevky: 2367
SMS donate: 0

PríspevokZaslal: Ut Nov 11, 2008 15:34 pm Odpovedať s citátomCelkom dole

Narnia: Princ Kaspian./Cz./.3Gp.(2008)


Image


Letopisy Narnie/Princ.Kaspian (2008).



Narnia: Princ Kaspian
Chronicles of Narnia: Prince Caspian, The
Fantasy / Dobrodružný / Rodinný
Velká Británie / USA, 2008, 147 min
Režie: Andrew Adamson
Hrají: Ben Barnes, Skandar Keynes, Anna Popplewell, William Moseley



Linky sa zobrazia až po prihlásení. Prihlás sa
Chces vidieť plný obsah a nie si zaregistrovaný? Zaregistruj sa



velikost: 180,0.Mb
zvuk: 2,0.ch./CZ./
320x240 3gp
****

Image
DOWNLOAD:
Kód:


Linky sa zobrazia až po prihlásení. Prihlás sa
Chces vidieť plný obsah a nie si zaregistrovaný? Zaregistruj sa



Linky sa zobrazia až po prihlásení. Prihlás sa
Chces vidieť plný obsah a nie si zaregistrovaný? Zaregistruj sa


Bez hesla.

Linky sa zobrazia až po prihlásení. Prihlás sa
Chces vidieť plný obsah a nie si zaregistrovaný? Zaregistruj sa
Zobrazit informácie o autoroviOdoslať súkromnú správuICQ
Bunny444   
Pokročilý


Založený: 07.08.2006
Príspevky: 173
SMS donate: 0
Bydlisko: pc-www.lamky.net,warez fora

PríspevokZaslal: Ne Nov 23, 2008 16:19 pm Odpovedať s citátomCelkom dole

Zahulíme,uvidíme 2 CZ
Harold & Kumar Escape from Guantanamo Bay
Image

Linky sa zobrazia až po prihlásení. Prihlás sa
Chces vidieť plný obsah a nie si zaregistrovaný? Zaregistruj sa

Rozlíšenie: 320x240
Formát: 3gp
Jazyk: Čeština

Linky sa zobrazia až po prihlásení. Prihlás sa
Chces vidieť plný obsah a nie si zaregistrovaný? Zaregistruj sa

Pass žiaden,ale môj UP!!!
Zobrazit informácie o autoroviOdoslať súkromnú správuAOL Instant MessengerMSN Messenger
ferko1986   
Nováčik


Založený: 25.02.2007
Príspevky: 19
SMS donate: 0
Bydlisko: stropkov

PríspevokZaslal: Št Jan 22, 2009 21:31 pm Odpovedať s citátomCelkom dole

Som legenda / 3gp

Obsah:

Robert Neville je sice špičkový vědec, ale ani on nedokázal zabránit šíření nebezpečného viru, který byl vyvinut lidmi a nedá se léčit. Neville je z neznámého důvodu vůči viru imunní a jako jediný příslušník lidského rodu žije v troskách New York City. Možná je dokonce posledním žijícím člověkem na planetě. Už tři roky, den co den, vysílá do éteru svou zprávu a hledá další přeživší. Neville však není úplně sám. Ze stínů jej pozorují zmutované oběti celosvětové pandemie, kteří sledují každý jeho krok a čekají, až udělá osudovou chybu. Nevillea, který je dost možná jedinou nadějí celého světa, drží při ...

download:

Kód:


Linky sa zobrazia až po prihlásení. Prihlás sa
Chces vidieť plný obsah a nie si zaregistrovaný? Zaregistruj sa



Linky sa zobrazia až po prihlásení. Prihlás sa
Chces vidieť plný obsah a nie si zaregistrovaný? Zaregistruj sa

bez hesla

video: 3gp , MPEG-4 , 220:176 , (5:4) , 96 kbps , 25 fps
zvuk: AAC , stereo , 64 kbps , 32000 KHz
Zobrazit informácie o autoroviOdoslať súkromnú správu
willy4400   
Warezák


Založený: 24.09.2007
Príspevky: 2367
SMS donate: 0

PríspevokZaslal: St Jan 28, 2009 20:37 pm Odpovedať s citátomCelkom dole



Lovecká sezóna 2 / Open Season 2 (2008)

Image
Open Season 2
Animovaný / Komedie / Dobrodružný / Rodinný
USA, 2008
Režie: Matthew O'Callaghan
Hrají: Crispin Glover, Jane Krakowski, Mike Epps

Linky sa zobrazia až po prihlásení. Prihlás sa
Chces vidieť plný obsah a nie si zaregistrovaný? Zaregistruj sa

Image
Type. Movie
velikost:
85.8 Mb
zvuk: 2,0.ch./CZ./
176x144 3gp
****
Image
DOWNLOAD:
Kód:

Linky sa zobrazia až po prihlásení. Prihlás sa
Chces vidieť plný obsah a nie si zaregistrovaný? Zaregistruj sa

Bez hesla.

Linky sa zobrazia až po prihlásení. Prihlás sa
Chces vidieť plný obsah a nie si zaregistrovaný? Zaregistruj sa
Zobrazit informácie o autoroviOdoslať súkromnú správuICQ
ferko1986   
Nováčik


Založený: 25.02.2007
Príspevky: 19
SMS donate: 0
Bydlisko: stropkov

PríspevokZaslal: Ne Mar 08, 2009 11:08 am Odpovedať s citátomCelkom dole

Bournov mytus

info

Linky sa zobrazia až po prihlásení. Prihlás sa
Chces vidieť plný obsah a nie si zaregistrovaný? Zaregistruj sa


hellshare

Linky sa zobrazia až po prihlásení. Prihlás sa
Chces vidieť plný obsah a nie si zaregistrovaný? Zaregistruj sa


upnito

Linky sa zobrazia až po prihlásení. Prihlás sa
Chces vidieť plný obsah a nie si zaregistrovaný? Zaregistruj sa


format: 3gp , 220:176 , zvuk AAC ,
Zobrazit informácie o autoroviOdoslať súkromnú správu
willy4400   
Warezák


Založený: 24.09.2007
Príspevky: 2367
SMS donate: 0

PríspevokZaslal: Ne Máj 03, 2009 7:57 am Odpovedať s citátomCelkom dole

Pokoj v duši / 3Gp./Cz./ (2009)
Image
Slovak Dabing

Linky sa zobrazia až po prihlásení. Prihlás sa
Chces vidieť plný obsah a nie si zaregistrovaný? Zaregistruj sa

Image
Format : 3gp4
Length : 153 MiB / 1h 29mn
Video #0 : H.263 at 225 Kbps
Aspect : 176 x 144 (1.222) at 12.500 fps
Audio #0 : AMR-NB at 13 Kbps
Infos : 2 channels, 8000 Hz
Image
DOWNLOAD:
Kód:

Linky sa zobrazia až po prihlásení. Prihlás sa
Chces vidieť plný obsah a nie si zaregistrovaný? Zaregistruj sa


Linky sa zobrazia až po prihlásení. Prihlás sa
Chces vidieť plný obsah a nie si zaregistrovaný? Zaregistruj sa



Linky sa zobrazia až po prihlásení. Prihlás sa
Chces vidieť plný obsah a nie si zaregistrovaný? Zaregistruj sa



Linky sa zobrazia až po prihlásení. Prihlás sa
Chces vidieť plný obsah a nie si zaregistrovaný? Zaregistruj sa


Bez Hesla:
Zobrazit informácie o autoroviOdoslať súkromnú správuICQ
marian73   
Pokročilý


Založený: 09.03.2007
Príspevky: 138
SMS donate: 0
Bydlisko: Zvolen

PríspevokZaslal: Ut Dec 08, 2009 9:11 am Odpovedať s citátomCelkom dole

Hanebný parchanti ( Inglourious Basterds, 2009)

Formát: Mp4 CZ Tit

Image

Info:


Linky sa zobrazia až po prihlásení. Prihlás sa
Chces vidieť plný obsah a nie si zaregistrovaný? Zaregistruj sa


Rozlišení:640x360
Drama / Válečný
USA / Německo, 2009, 153 min

Režie: Quentin Tarantino
Hrají: Brad Pitt, Mélanie Laurent, Christoph Waltz, Eli Roth, Michael Fassbender, Diane Kruger, Daniel Brühl, Til Schweiger, Gedeon Burkhard, Jacky Ido, B. J. Novak, Omar Doom, August Diehl, Denis Menochet, Sylvester Groth, Martin Wuttke, Mike Myers, Julie Dreyfus, Rod Taylor, Samm Levine, Paul Rust, Michael Bacall, Arndt Schwering-Sohnrey, Ken Duken, Christian Berkel, Anne-Sophie Franck, Léa Seydoux, Ludger Pistor, Jana Pallaske, Sebastian Hülk, Bo Svenson, Enzo G. Castellari, Samuel L. Jackson, Harvey Keitel



obsah:

Bylo nebylo v nacisty okupované Francii… Vítejte ve Druhé světové válce podle Quentina Tarantina. Vítejte ve světě, kde historická realita ustupuje lehce brutálnímu pohádkovému vyprávění jednoho z nejkontroverznějších režisérů současnosti. On sám přitom tvrdí, že se poetika Hanebných panchartů asi nejvíc přiblížila náladě filmu, který mu udělal jméno - násilnické černočerné komedii Pulp Fiction - Historky z podsvětí.
Německé vojáky ještě nepřestaly bolet nohy po smělé invazi do západní Evropy, když mladičké Shosanně (Melanie Laurent) přímo před očima německý důstojník Hans Landa (Christoph Waltz) vyvraždil členy její rodiny. Ona sama jen tak tak unikne do Paříže, kde se ukryje pod
novou identitu provozovatelky biografu. Na jiném místě hákovým křížem rozkopané Evropy se pod vedením lehce zupáckého amerického poručíka Aldo Rainea (Brad Pitt) formuje neobvyklá vojenská jednotka. Úkolem jejích členů je nejen přežít na území plném nacistů a jejich přisluhovačů, ale zároveň lividovat jejich elity a to tak efektně, že tím mezi nimi budou šířit strach a paniku. Říkají si Pancharti a právě je čeká ta nejtěžší mise, která může zcela změnit průběh války. V jednom pařížském biografu se chystá premiéra nového německého propagandistického eposu a téhle události se má účastnit řada nacistických špiček (možná i samotný Hitler). Úkolem Panchartů bude na akci proniknout a ukázat šéfům Třetí říše, jaké to je, když je člověk po smrti. Nepočítají ovšem s tím, že přímo pod světlem promítačky osnuje svůj plán pomsty za smrt blízkých osiřelá Shosanna a že když se jeden geniální plán na atentát střetne s jiným, výsledkem může být ještě geniálnější neúspěch. (oficiální text distributora)





Image


Linky sa zobrazia až po prihlásení. Prihlás sa
Chces vidieť plný obsah a nie si zaregistrovaný? Zaregistruj sa



Image


Linky sa zobrazia až po prihlásení. Prihlás sa
Chces vidieť plný obsah a nie si zaregistrovaný? Zaregistruj sa
Zobrazit informácie o autoroviOdoslať súkromnú správu
werio1   
Pokročilý


Založený: 16.09.2009
Príspevky: 169
SMS donate: 0

PríspevokZaslal: St Dec 30, 2009 13:37 pm Odpovedať s citátomCelkom dole

Ledově ostří / Blades of Glory (2007) 3gp


Image


Komedie / Romantický / Sportovní
USA, 2007, 93 min

Režie: Josh Gordon, Will Speck
Hrají: Will Ferrell, Jon Heder, Will Arnett, Amy Poehler, Jenna Fischer, William Fichtner, Craig T. Nelson, Romany Malco, Nick Swardson, Andy Richter, Rob Corddry, William Daniels, Rémy Girard, Nancy Kerrigan, Luke Wilson, Katharine Towne, Smith Cho

Obsah:
„Ledově ostří je čistá zábava, vítěz zlaté medaile za komedii", ve které hrají komickou superstar Will Ferrell (Ricky Bobby: Nejrychlejší jezdec) a Jon Heder (Napoleon Dynamit). Velcí krasobruslařští soupeři Chazz Michael Michaels (Ferrell) a Jimmy MacElroy (Heder) se spolu porvou o zlatou medaili na světovém šampionátu. Tito dva rivalové doživotně vykázaní z mužské kategorii obejdou zákaz a najdou zadní vrátka, která je přivedou zpět ale v kategorii párů! Dále hrají Craig T. Nelson, Will Arnett, Amy Poehler a Jenna Fischer.


Linky sa zobrazia až po prihlásení. Prihlás sa
Chces vidieť plný obsah a nie si zaregistrovaný? Zaregistruj sa


Format : MPEG-4
Format profile : 3GPP Media Release 4
Codec ID : 3gp4
File size : 214 MiB
Duration : 1h 29mn
Overal bit rate : 335 Kbps
Encoded date : UTC 1970-01-01 00:00:00
Tagged date : UTC 1970-01-01 00:00:00

Video
Format : H.263
Codec ID : s263
Duration : 1h 29mn
Bit rate mode : Variable
Bit rate : 320 Kbps
Width : 352 pixels
Height : 288 pixels
Display aspect ratio : 1.222
Frame rate mode : Constant
Frame rate : 15.000 fps
Bits/(Pixel*Frame) : 0.210
Stream size : 205 MiB
Encoded date : UTC 1970-01-01 00:00:00
Tagged date : UTC 1970-01-01 00:00:00

Audio
Format : AMR
Format/Info : Adaptive Multi-Rate
Format profile : Narrow band
Codec ID : samr
Duration : 1h 29mn
Bit rate mode : Constant
Bit rate : 12.8 Kbps
Channel(s) : 2 channels
Sampling rate : 8000 Hz
Resolution : 16 bits
Stream size : 8.18 MiB
Encoded date : UTC 1970-01-01 00:00:00
Tagged date : UTC 1970-01-01 00:00:00
dabing cesky

uloz.to


Linky sa zobrazia až po prihlásení. Prihlás sa
Chces vidieť plný obsah a nie si zaregistrovaný? Zaregistruj sa


no pass

// premazané a vyčistené moderátor Humko
Zobrazit informácie o autoroviOdoslať súkromnú správu
tomasulo   
Nováčik


Založený: 29.05.2007
Príspevky: 89
SMS donate: 0

PríspevokZaslal: So Jan 09, 2010 11:27 am Odpovedať s citátomCelkom dole

[Release:] Ceska.spojka.2002.3GP.CZ

Image

[Information:]
          CSFD -
Linky sa zobrazia až po prihlásení. Prihlás sa
Chces vidieť plný obsah a nie si zaregistrovaný? Zaregistruj sa


[Video Quality:]


Linky sa zobrazia až po prihlásení. Prihlás sa
Chces vidieť plný obsah a nie si zaregistrovaný? Zaregistruj sa


[Download:]

Linky sa zobrazia až po prihlásení. Prihlás sa
Chces vidieť plný obsah a nie si zaregistrovaný? Zaregistruj sa


[Alebo:]

Linky sa zobrazia až po prihlásení. Prihlás sa
Chces vidieť plný obsah a nie si zaregistrovaný? Zaregistruj sa


[Heslo / Password :]

N0 !!!
Zobrazit informácie o autoroviOdoslať súkromnú správu
tomasulo   
Nováčik


Založený: 29.05.2007
Príspevky: 89
SMS donate: 0

PríspevokZaslal: So Jan 09, 2010 11:32 am Odpovedať s citátomCelkom dole

[Release:] Koliska.do.hrobu.2003.3GP.CZ

Image

[Information:]
          CSFD -
Linky sa zobrazia až po prihlásení. Prihlás sa
Chces vidieť plný obsah a nie si zaregistrovaný? Zaregistruj sa


[Video Quality:]


Linky sa zobrazia až po prihlásení. Prihlás sa
Chces vidieť plný obsah a nie si zaregistrovaný? Zaregistruj sa


[Download:]

Linky sa zobrazia až po prihlásení. Prihlás sa
Chces vidieť plný obsah a nie si zaregistrovaný? Zaregistruj sa


[Alebo:]

Linky sa zobrazia až po prihlásení. Prihlás sa
Chces vidieť plný obsah a nie si zaregistrovaný? Zaregistruj sa


[Heslo / Password :]

N0 !!!
Zobrazit informácie o autoroviOdoslať súkromnú správu
werio1   
Pokročilý


Založený: 16.09.2009
Príspevky: 169
SMS donate: 0

PríspevokZaslal: Po Jan 18, 2010 14:03 pm Odpovedať s citátomCelkom dole

Čistá práce /The Bank Job (2008) 3GP


Image

Thriller / Krimi / Drama
Velká Británie, 2008, 111 min

Režie: Roger Donaldson
Hrají: Jason Statham, Saffron Burrows, Stephen Campbell Moore, Alki David, David Suchet, Alistair Petrie, Keeley Hawes, Colin Salmon, Craig Fairbrass, Peter Bowles, Daniel Mays, Bronson Webb, James Faulkner

Obsah:
Terry Leather (Jason Statham) pracuje v opravně aut. Není to moc výdělečná činnost, a proto se začíná pomalu zadlužovat. Se svými přáteli už podnikl pár drobných krádeží, ale byla to tvz. nižší liga. Čeká na nějakou větší příležitost a ta se mu naskytne v podobě přítelkyně, ze starých časů, Martine Love (Saffron Burrows). Ta mu poví, že jedná londýnská banka bude mít na týden vyřazené bezpečnostní systémy a požádá ho o pomoc banku vyloupit. Terry si uvědomí, že to je příležitost, na kterou celou dobu čekal, a tak nabídku příjme. Sestaví tým ze svých nejvěrnějších přátel a vyloupí bezpečnostní schránky ukryté


Linky sa zobrazia až po prihlásení. Prihlás sa
Chces vidieť plný obsah a nie si zaregistrovaný? Zaregistruj sa


Velikost: 256.78 MB
AVI rip na 3gp
Width : 352 pixels
Height : 288 pixels

uloz.to

Linky sa zobrazia až po prihlásení. Prihlás sa
Chces vidieť plný obsah a nie si zaregistrovaný? Zaregistruj sa


no pass
Zobrazit informácie o autoroviOdoslať súkromnú správu
Gazda3000   
Nováčik


Založený: 21.01.2009
Príspevky: 15
SMS donate: 0

PríspevokZaslal: Ut Mar 16, 2010 12:56 pm Odpovedať s citátomCelkom dole

Constantine


Image

Formát: 3gp
Velikost: 69MB
Jazyk: CZ


CSFD


Linky sa zobrazia až po prihlásení. Prihlás sa
Chces vidieť plný obsah a nie si zaregistrovaný? Zaregistruj sa



:download:



Linky sa zobrazia až po prihlásení. Prihlás sa
Chces vidieť plný obsah a nie si zaregistrovaný? Zaregistruj sa
Zobrazit informácie o autoroviOdoslať súkromnú správuOdoslať e-mail
werio1   
Pokročilý


Založený: 16.09.2009
Príspevky: 169
SMS donate: 0

PríspevokZaslal: St Mar 31, 2010 12:22 pm Odpovedať s citátomCelkom dole

Pach krve 3/Wrong Turn 3: Left for Dead(2009) 3gp


Image

Horor / Thriller
USA, 2009, 92 min
Režie: Declan O'Brien
Hrají: Tom Frederic, Janet Montgomery, Tamer Hassan, Gil Kolirin, Jake Curran, Todd Jensen, Borislav Iliev

Formát: 3gp
Rozlišení: 320x240
Velikost: 210.77 MB
Jazyk: CZ
Soubor: RaR-bez hesla

O filmu:kód:

Linky sa zobrazia až po prihlásení. Prihlás sa
Chces vidieť plný obsah a nie si zaregistrovaný? Zaregistruj sa


:down:
multishare.cz


Linky sa zobrazia až po prihlásení. Prihlás sa
Chces vidieť plný obsah a nie si zaregistrovaný? Zaregistruj sa


hellshare.com


Linky sa zobrazia až po prihlásení. Prihlás sa
Chces vidieť plný obsah a nie si zaregistrovaný? Zaregistruj sa


share-rapid.cz


Linky sa zobrazia až po prihlásení. Prihlás sa
Chces vidieť plný obsah a nie si zaregistrovaný? Zaregistruj sa


uloz.to


Linky sa zobrazia až po prihlásení. Prihlás sa
Chces vidieť plný obsah a nie si zaregistrovaný? Zaregistruj sa


no pass
Zobrazit informácie o autoroviOdoslať súkromnú správu
werio1   
Pokročilý


Založený: 16.09.2009
Príspevky: 169
SMS donate: 0

PríspevokZaslal: St Mar 31, 2010 12:23 pm Odpovedať s citátomCelkom dole

Polární bouře / Polar Storm (2009) 3GP CZ 320x240

Image

ČSFD:

Linky sa zobrazia až po prihlásení. Prihlás sa
Chces vidieť plný obsah a nie si zaregistrovaný? Zaregistruj sa


INFO:
Akční / Sci-Fi
USA, 2009

Režie: Paul Ziller
Hrají: Jack Coleman, Holly Dignard, David Lewis, Nicholas Carella, Roger R. Cross

Obsah:
Když kometa ”Copernicus” ohrožuje Zemi, musí astrofyzik ze státu Washington James Mayfield společně se svou ženou – středoškolskou učitelkou a synem udělat vše, aby zachránili svět, svou komunitu a sami sebe.

Parametre:
Format : MPEG-4
Aspect : 320 x 240
Velikost: 205.44 MB
jazyk cesky

:down:
multishare.cz


Linky sa zobrazia až po prihlásení. Prihlás sa
Chces vidieť plný obsah a nie si zaregistrovaný? Zaregistruj sa


hellshare.com


Linky sa zobrazia až po prihlásení. Prihlás sa
Chces vidieť plný obsah a nie si zaregistrovaný? Zaregistruj sa


share-rapid.cz


Linky sa zobrazia až po prihlásení. Prihlás sa
Chces vidieť plný obsah a nie si zaregistrovaný? Zaregistruj sa


uloz.to


Linky sa zobrazia až po prihlásení. Prihlás sa
Chces vidieť plný obsah a nie si zaregistrovaný? Zaregistruj sa


no pass
Zobrazit informácie o autoroviOdoslať súkromnú správu
werio1   
Pokročilý


Založený: 16.09.2009
Príspevky: 169
SMS donate: 0

PríspevokZaslal: St Máj 12, 2010 19:14 pm Odpovedať s citátomCelkom dole

Iron Man 2 (2010) cz dub

Image


Akční / Dobrodružný / Sci-Fi / Thriller
USA, 2010, 124 min

Režie: Jon Favreau
Hrají: Robert Downey Jr., Mickey Rourke, Samuel L. Jackson, Scarlett Johansson, Gwyneth Paltrow, Don Cheadle, Sam Rockwell, Kate Mara, Olivia Munn, Stan Lee, Tim Guinee, Paul Bettany, Clark Gregg, Helena Mattsson, Philippe Bergeron, John Slattery, Jon Favreau, Garry Shandling, Katie Cleary, Leslie Bibb, Cassity Atkins

Obsah:

Ve druhém díle komiksové adaptace se alkoholik, vynálezce a superhrdina Tony Stark bude muset vyrovnat nejen s tím, že prozradil pravdu o svém alter egu médiím, ale především ho čeká konfrontace s cynickým konkurentem Justinem Hammerem. Bude se muset porvat se záporákem jménem Whiplash, jenž si až příliš rozumí s elektřinou. Naštěstí bude mít k ruce pár nečekaných spojenců včetně ruské superšpionky Černé vdovy.


Linky sa zobrazia až po prihlásení. Prihlás sa
Chces vidieť plný obsah a nie si zaregistrovaný? Zaregistruj sa



Format : MPEG-4
Format profile : 3GPP Media Release 4
Codec ID : 3gp4
File size : 269 MiB
Duration : 1h 52mn
Overal bit rate : 336 Kbps
Encoded date : UTC 1970-01-01 00:00:00
Tagged date : UTC 1970-01-01 00:00:00

Video
Format : H.263
Codec ID : s263
Duration : 1h 52mn
Bit rate mode : Variable
Bit rate : 320 Kbps
Width : 352 pixels
Height : 288 pixels
Display aspect ratio : 1.222
Frame rate mode : Constant
Frame rate : 15.000 fps
Bits/(Pixel*Frame) : 0.211
Stream size : 257 MiB
Encoded date : UTC 1970-01-01 00:00:00
Tagged date : UTC 1970-01-01 00:00:00

Audio
Format : AMR
Format/Info : Adaptive Multi-Rate
Format profile : Narrow band
Codec ID : samr
Duration : 1h 52mn
Bit rate mode : Constant
Bit rate : 12.8 Kbps
Channel(s) : 2 channels
Sampling rate : 8000 Hz
Resolution : 16 bits
Stream size : 10.3 MiB
Encoded date : UTC 1970-01-01 00:00:00
Tagged date : UTC 1970-01-01 00:00:00
dabing Cesky z kina

:down:
multishare.cz


Linky sa zobrazia až po prihlásení. Prihlás sa
Chces vidieť plný obsah a nie si zaregistrovaný? Zaregistruj sa


hellshare.com


Linky sa zobrazia až po prihlásení. Prihlás sa
Chces vidieť plný obsah a nie si zaregistrovaný? Zaregistruj sa


share-rapid.cz


Linky sa zobrazia až po prihlásení. Prihlás sa
Chces vidieť plný obsah a nie si zaregistrovaný? Zaregistruj sa


uloz.to


Linky sa zobrazia až po prihlásení. Prihlás sa
Chces vidieť plný obsah a nie si zaregistrovaný? Zaregistruj sa


no pass
Zobrazit informácie o autoroviOdoslať súkromnú správu
werio1   
Pokročilý


Založený: 16.09.2009
Príspevky: 169
SMS donate: 0

PríspevokZaslal: So Máj 15, 2010 8:34 am Odpovedať s citátomCelkom dole

Zastav a neprezijes 2 (2009) cz 3gp

Image

Zastaneš a neprežiješ 2
Crank: High Voltage

Akční / Thriller / Komedie
USA, 2009, 96 min

Režie: Mark Neveldine, Brian Taylor
Hrají: Jason Statham, Amy Smart, Dwight Yoakam, Efren Ramirez, Julanne Chidi Hill, Art Hsu, Joseph Julian Soria, Ling Bai, Clifton Collins Jr., David Carradine, Corey Haim, Geri Halliwell, Billy Unger, Jamie Harris, John de Lancie, Henry Hayashi, Chester Bennington, Ted Garcia, Lloyd Kaufman, Jenna Haze, Ron Jeremy, Lauren Holly, Glenn Howerton, Shirley To

Obsah:
V tomto vysoko-oktanovém pokračování čínská mafie ukradne Cheliosovo téměř nezničitelné srdce a vymění ho za bateriově poháněnou náhradu, která vyžaduje pravidelné dávky elektřiny, aby se udržela v chodu. Odhodlání získat své skutečné srdce zpět a touha po pomstě jsou jeho hnacím motorem. Chev Chelios se vydává na zběsilou honičku ulicemi L.A. a sejme každého, kdo se mu postaví do cesty.


Linky sa zobrazia až po prihlásení. Prihlás sa
Chces vidieť plný obsah a nie si zaregistrovaný? Zaregistruj sa


:infOo:
Format : MPEG-4
Format profile : 3GPP Media Release 4
Codec ID : 3gp4
File size : 220 MiB
Duration : 1h 31mn
Overal bit rate : 335 Kbps
Encoded date : UTC 1970-01-01 00:00:00
Tagged date : UTC 1970-01-01 00:00:00

Video
Format : H.263
Codec ID : s263
Duration : 1h 31mn
Bit rate mode : Variable
Bit rate : 320 Kbps
Width : 352 pixels
Height : 288 pixels
Display aspect ratio : 1.222
Frame rate mode : Constant
Frame rate : 15.000 fps
Bits/(Pixel*Frame) : 0.210
Stream size : 210 MiB
Encoded date : UTC 1970-01-01 00:00:00
Tagged date : UTC 1970-01-01 00:00:00

Audio
Format : AMR
Format/Info : Adaptive Multi-Rate
Format profile : Narrow band
Codec ID : samr
Duration : 1h 31mn
Bit rate mode : Constant
Bit rate : 12.8 Kbps
Channel(s) : 2 channels
Sampling rate : 8000 Hz
Resolution : 16 bits
Stream size : 8.40 MiB
Encoded date : UTC 1970-01-01 00:00:00
Tagged date : UTC 1970-01-01 00:00:00
Dabing cesky

:down:
multishare.cz


Linky sa zobrazia až po prihlásení. Prihlás sa
Chces vidieť plný obsah a nie si zaregistrovaný? Zaregistruj sa


hellshare.com


Linky sa zobrazia až po prihlásení. Prihlás sa
Chces vidieť plný obsah a nie si zaregistrovaný? Zaregistruj sa


share-rapid.cz


Linky sa zobrazia až po prihlásení. Prihlás sa
Chces vidieť plný obsah a nie si zaregistrovaný? Zaregistruj sa


uloz.to


Linky sa zobrazia až po prihlásení. Prihlás sa
Chces vidieť plný obsah a nie si zaregistrovaný? Zaregistruj sa


no pass
Zobrazit informácie o autoroviOdoslať súkromnú správu
werio1   
Pokročilý


Založený: 16.09.2009
Príspevky: 169
SMS donate: 0

PríspevokZaslal: Po Máj 31, 2010 17:21 pm Odpovedať s citátomCelkom dole

Quantum Apocalypse USA, (2010) cz 3gp

Image

Sci-Fi
USA, 2010

Režie: Justin Jones
Hrají: Rhett Giles, Stephanie Chaves - Jacobsen, Gigi Edgley, Peter Jurasik, Shirly Brener

Obsah:
Pri pozorovaní kométy letiacej okolo Marsu sa zistí, že náhle zmenila smer a narazila do červenej planéty. Úlomky teraz letia priamo na Zem a pri dopade spôsobia zánik života.
Medzi tým sa na našej planéte dejú rôzne úkazy. Teraz prichádza čas pre mladých vedcov, aby zistili, ako mohla kométa tak náhle zmeniť smer a ako odvrátiť blížiacu sa katastrofu


Linky sa zobrazia až po prihlásení. Prihlás sa
Chces vidieť plný obsah a nie si zaregistrovaný? Zaregistruj sa


:infOo:

Format : MPEG-4
Format profile : 3GPP Media Release 4
Codec ID : 3gp4
File size : 218 MiB
Duration : 1h 30mn
Overal bit rate : 335 Kbps
Encoded date : UTC 1970-01-01 00:00:00
Tagged date : UTC 1970-01-01 00:00:00

Video
Format : H.263
Codec ID : s263
Duration : 1h 30mn
Bit rate mode : Variable
Bit rate : 320 Kbps
Width : 352 pixels
Height : 288 pixels
Display aspect ratio : 1.222
Frame rate mode : Constant
Frame rate : 15.000 fps
Bits/(Pixel*Frame) : 0.210
Stream size : 208 MiB
Encoded date : UTC 1970-01-01 00:00:00
Tagged date : UTC 1970-01-01 00:00:00

Audio
Format : AMR
Format/Info : Adaptive Multi-Rate
Format profile : Narrow band
Codec ID : samr
Duration : 1h 30mn
Bit rate mode : Constant
Bit rate : 12.8 Kbps
Channel(s) : 2 channels
Sampling rate : 8000 Hz
Resolution : 16 bits
Stream size : 8.33 MiB
Encoded date : UTC 1970-01-01 00:00:00
Tagged date : UTC 1970-01-01 00:00:00
Dabing cesky


:down:

multishare.cz


Linky sa zobrazia až po prihlásení. Prihlás sa
Chces vidieť plný obsah a nie si zaregistrovaný? Zaregistruj sa


hellshare.com


Linky sa zobrazia až po prihlásení. Prihlás sa
Chces vidieť plný obsah a nie si zaregistrovaný? Zaregistruj sa


share-rapid.cz


Linky sa zobrazia až po prihlásení. Prihlás sa
Chces vidieť plný obsah a nie si zaregistrovaný? Zaregistruj sa



uloz.to


Linky sa zobrazia až po prihlásení. Prihlás sa
Chces vidieť plný obsah a nie si zaregistrovaný? Zaregistruj sa


no pass
Zobrazit informácie o autoroviOdoslať súkromnú správu
Sťahuj z HELLSHARE neobmedzene bez premium účtu!
Zobraziť príspevky z predchádzajúcich:      
Odpovedať na tému Thank Post


 Prejdi na:   



Zobraziť nasledujúcu tému
Zobraziť predchádzajúcu tému
Nemôžete odosielať nové témy do tohto fóra
Nemôžete odpovedať na témy v tomto fóre
Nemôžete upravovať svoje príspevky v tomto fóre
Nemôžete mazať svoje príspevky v tomto fóre
Nemôžete hlasovať v tomto fóre


Upozornenie: Žiadny zo zobrazovaných súborov sa nenachádza na tomto serveri. Autor stránky neberie žiadnu zodpovednost za príspevky odoslané uživatelmi. Nepoužívajte tieto stránky k distribúcii alebo k downloadu akýchkolvek materiálov, ku ktorým nemáte legálne opravnenie alebo licenciu. Všetky príspevky sem vkladáte na vlastnú zodpovednost. Autor stránky odmieta akúkolvek zodpovednost za prípadne porušovanie zákonov. Kopírovanie obsahu bez písomného súhlasu autora stránky je trestné.
V prípade, že ste narazili na nelegálny obsah prosím okamžite kontaktujte administrátora portálu.



Powered by phpBB © 2005 phpBB Group :: Časy uvádzané v GMT + 1 hodina
[ Nacítanie: 0.4s ] :: [ 37 Queries ] :: [ 62,130 stránok za dnes ] :: [ Dnes DB: 1,193,931 ] :: [ Max DB: 13,059,503 ]