Obsah fóra www.lamky.net

lamky.net banner
Registrácia  •  Prihlásenie
 Mother! / Matka! (2017) Zobraziť nasledujúcu tému
Zobraziť predchádzajúcu tému

Pridat tému do záložiek
Odpovedať na tému Thank Post
Autor Správa
sniper00   
Warezák


Založený: 15.08.2009
Príspevky: 247
SMS donate: 0

PríspevokZaslal: St Dec 06, 2017 12:58 pm Odpovedať s citátomCelkom dole

Image


Image

Linky sa zobrazia až po prihlásení. Prihlás sa
Chces vidieť plný obsah a nie si zaregistrovaný? Zaregistruj sa


Image
General
Format : AVI
Format/Info : Audio Video Interleave
File size : 1.38 GiB
Duration : 2h 1mn
Overall bit rate : 1 627 Kbps
Movie name : Mother.2017.WEB-DL.XviD.AC3-FGT
Writing library : VirtualDub build 35491/release
Comment : Mother.2017.WEB-DL.XviD.AC3-FGT

Video
ID : 0
Format : MPEG-4 Visual
Format profile : Simple@L5
Format settings, BVOP : No
Format settings, QPel : No
Format settings, GMC : No warppoints
Format settings, Matrix : Default (H.263)
Codec ID : XVID
Codec ID/Hint : XviD
Duration : 2h 1mn
Bit rate : 1 235 Kbps
Width : 720 pixels
Height : 304 pixels
Display aspect ratio : 2.40:1
Frame rate : 23.976 fps
Color space : YUV
Chroma subsampling : 4:2:0
Bit depth : 8 bits
Scan type : Progressive
Compression mode : Lossy
Bits/(Pixel*Frame) : 0.235
Stream size : 1.05 GiB (76%)
Writing library : Lavc58.1.100

Audio
ID : 1
Format : AC-3
Format/Info : Audio Coding 3
Mode extension : CM (complete main)
Format settings, Endianness : Big
Codec ID : 2000
Duration : 2h 1mn
Bit rate mode : Constant
Bit rate : 384 Kbps
Channel(s) : 6 channels
Channel positions : Front: L C R, Side: L R, LFE
Sampling rate : 48.0 KHz
Compression mode : Lossy
Stream size : 333 MiB (24%)
Alignment : Aligned on interleaves
Interleave, duration : 42 ms (1.00 video frame)
Interleave, preload duratio : 512 ms

Jazyk : EN Dabing



Image
Image

Linky sa zobrazia až po prihlásení. Prihlás sa
Chces vidieť plný obsah a nie si zaregistrovaný? Zaregistruj sa
Zobrazit informácie o autoroviOdoslať súkromnú správuICQ
freesby89   
Nováčik


Založený: 30.05.2014
Príspevky: 69
SMS donate: 0

PríspevokZaslal: St Dec 06, 2017 15:25 pm Odpovedať s citátomCelkom dole

Mother!.2017.720p.WEB-DL.H264.AC3-EVO.mkv + sk titulky


Cover:

Image

Info:

Jazyk: AJ
Titulky: SK
Kvalita zvuku: viz. Mediainfo
Kvalita videa: viz. Mediainfo
Rok vydání: 2017
Délka: 2h 1min

Csfd:

Linky sa zobrazia až po prihlásení. Prihlás sa
Chces vidieť plný obsah a nie si zaregistrovaný? Zaregistruj sa

Info:
Celý název a cesta: Mother!\Mother!.2017.720p.WEB-DL.H264.AC3-EVO.mkv
Formát: Matroska
Format_Version: Version 4 / Version 2
Velikost souboru: 3,82 GiB
Duration/String: 2 h 1 min
Celkový BitRate: 4 488 kb/s
Název filmu: EVO
Encoded date: UTC 2017-12-05 06:27:28
Použitý software: mkvmerge v6.7.0 ('Back to the Ground) 64bit built on Jan 8 2014 15:10:52
Enkódoval: libebml v1.3.0 + libmatroska v1.4.1

Video
ID: 1
Formát: AVC
Formát/: Advanced Video Codec
Format_Profile: Main@L3.1
Format_Settings_CABAC/String: Ne
Format_Settings_RefFrames/String: 2 frame
CodecID: V_MPEG4/ISO/AVC
Duration/String: 2 h 1 min
Bit rate: 4 015 kb/s
Šířka: 1 280pixely
Výška: 536pixely
Poměr stran: 2,40:1
Frame rate: 24,000 FPS
ColorSpace: YUV
ChromaSubsampling/String: 4:2:0
BitDepth/String: 8 bits
ScanType/String: Progressive
Bits/(Pixel*Frame): 0.244
StreamSize/String: 3,41 GiB (89%)
Jazyk: English
Default: Ano
Forced: Ne
colour_range: Limited
colour_primaries: BT.709
transfer_characteristics: BT.709
matrix_coefficients: BT.709

Audio
ID: 2
Formát: AC-3
Formát/: Audio Coding 3
Format_Settings_Endianness: Big
CodecID: A_AC3
Duration/String: 2 h 1 min
Bit rate: 384 kb/s
Kanál(y): 6 kanály
Channel positions: Front: L C R, Side: L R, LFE
Sampling rate: 48,0 kHz
Frame rate: 31,250 FPS (1536 SPF)
BitDepth/String: 16 bits
StreamSize/String: 334 MiB (9%)
Jazyk: English
ServiceKind/String: Complete Main
Default: Ano
Forced: Ne


Download:

Linky sa zobrazia až po prihlásení. Prihlás sa
Chces vidieť plný obsah a nie si zaregistrovaný? Zaregistruj sa
Zobrazit informácie o autoroviOdoslať súkromnú správu
Sťahuj z HELLSHARE neobmedzene bez premium účtu!
Zobraziť príspevky z predchádzajúcich:      
Odpovedať na tému Thank Post


 Prejdi na:   



Zobraziť nasledujúcu tému
Zobraziť predchádzajúcu tému
Nemôžete odosielať nové témy do tohto fóra
Nemôžete odpovedať na témy v tomto fóre
Nemôžete upravovať svoje príspevky v tomto fóre
Nemôžete mazať svoje príspevky v tomto fóre
Nemôžete hlasovať v tomto fóre


Upozornenie: Žiadny zo zobrazovaných súborov sa nenachádza na tomto serveri. Autor stránky neberie žiadnu zodpovednost za príspevky odoslané uživatelmi. Nepoužívajte tieto stránky k distribúcii alebo k downloadu akýchkolvek materiálov, ku ktorým nemáte legálne opravnenie alebo licenciu. Všetky príspevky sem vkladáte na vlastnú zodpovednost. Autor stránky odmieta akúkolvek zodpovednost za prípadne porušovanie zákonov. Kopírovanie obsahu bez písomného súhlasu autora stránky je trestné.
V prípade, že ste narazili na nelegálny obsah prosím okamžite kontaktujte administrátora portálu.



Powered by phpBB © 2005 phpBB Group :: Časy uvádzané v GMT + 1 hodina
[ Nacítanie: 0.1s ] :: [ 22 Queries ] :: [ 19,542 stránok za dnes ] :: [ Dnes DB: 390,069 ] :: [ Max DB: 13,059,503 ]