Obsah fóra www.lamky.net

lamky.net banner
Registrácia  •  Prihlásenie
 Troy, the / Troja / 720p /EN+CZ Zobraziť nasledujúcu tému
Zobraziť predchádzajúcu tému

Pridat tému do záložiek
Odpovedať na tému Thank Post
Autor Správa
dave1970   
Warezák


Založený: 06.09.2007
Príspevky: 1628
SMS donate: 0

PríspevokZaslal: So Máj 15, 2010 0:01 am Odpovedať s citátomCelkom dole

Troy - Troja (2004) - 720p
Image

Originalny nazev: Troy
Prelozeny nazev: Troja
Rok vydani: 2004
Delka: 2h 34mn
AUDIO : 2.0 CZ
DD 5.1 ENG

Linky sa zobrazia až po prihlásení. Prihlás sa
Chces vidieť plný obsah a nie si zaregistrovaný? Zaregistruj sa

Odkaz na csfd: http://www.csfd.cz/film/71307-troja/
Odkaz na imdb: http://www.imdb.com/title/tt0332452/



Príčinou konfliktu, ktorý prerástol do legendárnej trójskej vojny, bola žena. Paris (Orlando Bloom), syn trójskeho kráľa Priama, mal rozhodnúť, ktorá z troch bohyní (Athéna, Afrodita, Héra) je najkrajšia. Afrodita mu v silnej túžbe po víťazstve prisľúbila najlákavejšiu odmenu - najkrajšiu pozemskú ženu. Paris jej úplatku podľahol a zvolil ju. Na oplátku potom Afrodita v roku 1193 pred n.l. pomohla Parisovi s únosom krásnej Heleny, ktorá bola manželkou Menelausa - kráľa Sparty. Navyše Paris okrem Heleny ukradol Menelausovi aj plnú kráľovskú pokladnicu. Tieto podlé činy sa stali dôvodom desať rokov trvajúcej vojny medzi obyvateľmi Tróje a ...

Linky sa zobrazia až po prihlásení. Prihlás sa
Chces vidieť plný obsah a nie si zaregistrovaný? Zaregistruj sa

or

Linky sa zobrazia až po prihlásení. Prihlás sa
Chces vidieť plný obsah a nie si zaregistrovaný? Zaregistruj sa

or

Linky sa zobrazia až po prihlásení. Prihlás sa
Chces vidieť plný obsah a nie si zaregistrovaný? Zaregistruj sa

OR:

Linky sa zobrazia až po prihlásení. Prihlás sa
Chces vidieť plný obsah a nie si zaregistrovaný? Zaregistruj sa


PARTY 400 MB, daji se kombinovat
Zobrazit informácie o autoroviOdoslať súkromnú správu
Podakovania: predator1403, je vdačný za túto tému.
CSSR.§§ CZ   
Warezák


Založený: 27.11.2006
Príspevky: 258
SMS donate: 0

PríspevokZaslal: So Dec 17, 2011 7:39 am Odpovedať s citátomCelkom dole

Image

Image


Linky sa zobrazia až po prihlásení. Prihlás sa
Chces vidieť plný obsah a nie si zaregistrovaný? Zaregistruj sa


Image
Citácia:
DISC INFO:

Disc Title: Troja
Disc Size: 30 278 541 574 bytes
Protection: AACS
BD-Java: No
BDInfo: 0.5.6

PLAYLIST REPORT:

Name: 00100.MPLS
Length: 2:42:47 (h:m:s)
Size: 0 bytes
Total Bitrate: 0,00 Mbps

VIDEO:

Codec Bitrate Description
----- ------- -----------
VC-1 Video 0 kbps 1080p / 23,976 fps / 16:9 / Advanced Profile 3

AUDIO:

Codec Language Bitrate Description
----- -------- ------- -----------
Dolby TrueHD Audio English 0 kbps 5.1 / 48 kHz / 16-bit (AC3 Embedded: 5.1 / 48 kHz / 640 kbps / DN -4dB)
Dolby Digital Audio English 640 kbps 5.1 / 48 kHz / 640 kbps / DN -4dB
Dolby Digital Audio Czech 640 kbps 5.1 / 48 kHz / 640 kbps / DN -4dB
Dolby Digital Audio Hungarian 640 kbps 5.1 / 48 kHz / 640 kbps / DN -4dB
Dolby Digital Audio Polish 640 kbps 5.1 / 48 kHz / 640 kbps / DN -4dB
Dolby Digital Audio Thai 640 kbps 5.1 / 48 kHz / 640 kbps / DN -4dB
Dolby Digital Audio Russian 192 kbps 2.0 / 48 kHz / 192 kbps / DN -4dB / Dolby Surround
Dolby Digital Audio Turkish 192 kbps 2.0 / 48 kHz / 192 kbps / DN -4dB / Dolby Surround

SUBTITLES:

Codec Language Bitrate Description
----- -------- ------- -----------
Presentation Graphics English 0,000 kbps
Presentation Graphics Arabic 0,000 kbps
Presentation Graphics Bulgarian 0,000 kbps
Presentation Graphics Croatian 0,000 kbps
Presentation Graphics Czech 0,000 kbps
Presentation Graphics Estonian 0,000 kbps
Presentation Graphics Greek 0,000 kbps
Presentation Graphics Hebrew 0,000 kbps
Presentation Graphics Hungarian 0,000 kbps
Presentation Graphics Chinese 0,000 kbps
Presentation Graphics Icelandic 0,000 kbps
Presentation Graphics Korean 0,000 kbps
Presentation Graphics Latvian 0,000 kbps
Presentation Graphics Lithuanian 0,000 kbps
Presentation Graphics Polish 0,000 kbps
Presentation Graphics Portuguese 0,000 kbps
Presentation Graphics Romanian 0,000 kbps
Presentation Graphics Russian 0,000 kbps
Presentation Graphics Serbian 0,000 kbps
Presentation Graphics Slovenian 0,000 kbps
Presentation Graphics Thai 0,000 kbps
Presentation Graphics Turkish 0,000 kbps
Presentation Graphics Ukrainian 0,000 kbps


Image

Linky sa zobrazia až po prihlásení. Prihlás sa
Chces vidieť plný obsah a nie si zaregistrovaný? Zaregistruj sa


Image
[color=#FF4000] Přidán záznam na opravu dat 5%
Před stahováním si ověrte zda jsou linky plně funkční
v případe problému pište SS / PM[/color[/img]
Zobrazit informácie o autoroviOdoslať súkromnú správuZobraziť autorove WWW stránky
edios   
Warezák


Založený: 20.09.2011
Príspevky: 268
SMS donate: 0

PríspevokZaslal: So Máj 12, 2012 15:35 pm Odpovedať s citátomCelkom dole

Název: Troja / Troy (2004)

Zdroj: Troy.2004.Theatrical.Cut.BluRay.1080p.x264.DTS.dxva-xXx.En.CZ

Image

Image

Image


Linky sa zobrazia až po prihlásení. Prihlás sa
Chces vidieť plný obsah a nie si zaregistrovaný? Zaregistruj sa


Image

Citácia:
Akční / Dobrodružný / Válečný
USA / Malta / Velká Británie, 2004, 157 min (Director's cut: 201 min)


CSFD 70 %
IMDb Rating 7.0


Režie: Wolfgang Petersen
Hudba: James Horner
Hrají: Julian Glover, Brian Cox, Brad Pitt, Eric Bana, Orlando Bloom, Diane Kruger, Sean Bean, Peter O'Toole, Julie Christie, Saffron Burrows, Brendan Gleeson, Nigel Terry, Trevor Eve, Rose Byrne, Alex King, James Cosmo, Garrett Hedlund, Nathan Jones, Tyler Mane, Vincent Regan, Owain Yeoman, John Shrapnel


Príčinou konfliktu, ktorý prerástol do legendárnej trójskej vojny, bola žena. Paris (Orlando Bloom), syn trójskeho kráľa Priama, mal rozhodnúť, ktorá z troch bohyní (Athéna, Afrodita, Héra) je najkrajšia. Afrodita mu v silnej túžbe po víťazstve prisľúbila najlákavejšiu odmenu - najkrajšiu pozemskú ženu. Paris jej úplatku podľahol a zvolil ju. Na oplátku potom Afrodita v roku 1193 pred n.l. pomohla Parisovi s únosom krásnej Heleny, ktorá bola manželkou Menelausa - kráľa Sparty. Navyše Paris okrem Heleny ukradol Menelausovi aj plnú kráľovskú pokladnicu. Tieto podlé činy sa stali dôvodom desať rokov trvajúcej vojny medzi obyvateľmi Tróje a gréckymi vojskami. Na obidvoch znepriatelených stranách stáli vodcovia a bojovníci, ktorých mená sú opradené slávou i v dnešných časoch. Do čela trójskej armády sa postavil Parisov brat Hector (Eric Bana - Hulk) a Grékov do vojny viedol Achilles (Brad Pitt) s výdatnou pomocou slávneho Odyssea (Sean Bean - Boromir z Pána prsteňov). Práve on navrhol postaviť trójskeho koňa, s pomocou ktorého sa gréci ľsťou dostali do mesta Tróje a otvorili brány svojím vojskám

Legendárny príbeh o príčine, priebehu a výsledku trójskej vojny ako prvý zaznamenal grécky spisovateľ Homér v epose Ilias a čiastočne aj v druhom s názvom Oddysea. Na filmové plátno sa ho rozhodol previesť Wolfgang Petersen (Nekonečný príbeh), režisér nemeckého pôvodu. Okrem hviezdneho hereckého obsadenia nás čakajú vďaka vysokému rozpočtu (135 miliónov dolárov) aj obrovské epické súboje, v ktorých sa naraz objaví až 1.000 lodí a 75.000 bojovníkov. (oficiální text distributora)


Complete name : D:\filmy download\Srn.by.dadinek2.of.poweruploaders\Troy.2004.Theatrical.Cut.BluRay.1080p.x264.DTS.dxva-xXx.mkv
Format : Matroska
File size : 13.7 GiB
Duration : 2h 42mn
Overall bit rate : 12.0 Mbps
Encoded date : UTC 2011-01-18 19:40:08
Writing application : mkvmerge v4.4.0 ('Die Wiederkehr') built on Oct 31 2010 21:52:48
Writing library : libebml v1.0.0 + libmatroska v1.0.0

Video
ID : 1
Format : AVC
Format/Info : Advanced Video Codec
Format profile : High@L4.1
Format settings, CABAC : Yes
Format settings, ReFrames : 5 frames
Muxing mode : Container profile=Unknown@4.1
Codec ID : V_MPEG4/ISO/AVC
Duration : 2h 42mn
Bit rate : 8 753 Kbps
Nominal bit rate : 9 000 Kbps
Width : 1 920 pixels
Height : 796 pixels
Display aspect ratio : 2.412
Frame rate : 23.976 fps
Resolution : 24 bits
Colorimetry : 4:2:0
Scan type : Progressive
Bits/(Pixel*Frame) : 0.239
Stream size : 9.94 GiB (73%)
Writing library : x264 core 98 r1649 20cbe10
Encoding settings : cabac=1 / ref=5 / deblock=1:-3:-3 / analyse=0x3:0x113 / me=umh / subme=10 / psy=1 / psy_rd=0.00:0.00 / mixed_ref=1 / me_range=64 / chroma_me=1 / trellis=2 / 8x8dct=1 / cqm=0 / deadzone=21,11 / fast_pskip=0 / chroma_qp_offset=0 / threads=18 / sliced_threads=0 / nr=0 / decimate=0 / interlaced=0 / constrained_intra=0 / bframes=6 / b_pyramid=2 / b_adapt=2 / b_bias=0 / direct=3 / weightb=1 / weightp=2 / keyint=250 / keyint_min=25 / scenecut=40 / intra_refresh=0 / rc_lookahead=50 / rc=2pass / mbtree=1 / bitrate=9000 / ratetol=1.0 / qcomp=0.60 / qpmin=10 / qpmax=51 / qpstep=4 / cplxblur=20.0 / qblur=0.5 / vbv_maxrate=38000 / vbv_bufsize=30000 / ip_ratio=1.40 / aq=1:0.70 / nal_hrd=none

Audio #1
ID : 2
Format : DTS
Format/Info : Digital Theater Systems
Codec ID : A_DTS
Duration : 2h 42mn
Bit rate mode : Constant
Bit rate : 1 510 Kbps
Channel(s) : 6 channels
Channel positions : Front: L C R, Surround: L R, LFE
Sampling rate : 48.0 KHz
Resolution : 24 bits
Stream size : 1.72 GiB (13%)
Title : 5.1 DTS 1536 kbps

Audio #2
ID : 3
Format : DTS
Format/Info : Digital Theater Systems
Codec ID : A_DTS
Duration : 2h 42mn
Bit rate mode : Constant
Bit rate : 1 510 Kbps
Channel(s) : 6 channels
Channel positions : Front: L C R, Surround: L R, LFE
Sampling rate : 48.0 KHz
Resolution : 24 bits
Stream size : 1.72 GiB (13%)
Title : 5.1 DTS 1536 kbps
Language : Czech

Text
ID : 4
Format : UTF-8
Codec ID : S_TEXT/UTF8
Codec ID/Info : UTF-8 Plain Text
Language : Czech



Image


Linky sa zobrazia až po prihlásení. Prihlás sa
Chces vidieť plný obsah a nie si zaregistrovaný? Zaregistruj sa



Image


Linky sa zobrazia až po prihlásení. Prihlás sa
Chces vidieť plný obsah a nie si zaregistrovaný? Zaregistruj sa



Image


Linky sa zobrazia až po prihlásení. Prihlás sa
Chces vidieť plný obsah a nie si zaregistrovaný? Zaregistruj sa



Image


Linky sa zobrazia až po prihlásení. Prihlás sa
Chces vidieť plný obsah a nie si zaregistrovaný? Zaregistruj sa
Zobrazit informácie o autoroviOdoslať súkromnú správu
lepin   
Uploader


Založený: 03.06.2007
Príspevky: 6777
SMS donate: 0

PríspevokZaslal: So Jún 02, 2012 14:54 pm Odpovedať s citátomCelkom dole

Troja / Troy (2004)
Trója

Image
Akční / Dobrodružný / Válečný

USA / Malta / Velká Británie, 2004, 157 min (Director's cut: 201 min)

Linky sa zobrazia až po prihlásení. Prihlás sa
Chces vidieť plný obsah a nie si zaregistrovaný? Zaregistruj sa

Režie:
Wolfgang Petersen
Hudba:
James Horner
Hrají:
Julian Glover, Brian Cox, Brad Pitt, Eric Bana, Orlando Bloom, Diane Kruger, Sean Bean,
Peter O'Toole, Julie Christie, Saffron Burrows, Brendan Gleeson, Nigel Terry, Trevor Eve,
Rose Byrne, Alex King, James Cosmo, Garrett Hedlund, Nathan Jones, Tyler Mane, Vincent Regan,
Owain Yeoman, John Shrapnel

Obsah:

Príčinou konfliktu, ktorý prerástol do legendárnej trójskej vojny, bola žena. Paris (Orlando Bloom),
syn trójskeho kráľa Priama, mal rozhodnúť, ktorá z troch bohyní (Athéna, Afrodita, Héra) je najkrajšia.
Afrodita mu v silnej túžbe po víťazstve prisľúbila najlákavejšiu odmenu - najkrajšiu pozemskú ženu.
Paris jej úplatku podľahol a zvolil ju. Na oplátku potom Afrodita v roku 1193 pred n.l. pomohla Parisovi
s únosom krásnej Heleny, ktorá bola manželkou Menelausa - kráľa Sparty. Navyše Paris okrem Heleny ukradol
Menelausovi aj plnú kráľovskú pokladnicu. Tieto podlé činy sa stali dôvodom desať rokov trvajúcej vojny
medzi obyvateľmi Tróje a gréckymi vojskami. Na obidvoch znepriatelených stranách stáli vodcovia a bojovníci,
ktorých mená sú opradené slávou i v dnešných časoch. Do čela trójskej armády sa postavil Parisov brat
Hector (Eric Bana - Hulk) a Grékov do vojny viedol Achilles (Brad Pitt) s výdatnou pomocou slávneho
Odyssea (Sean Bean - Boromir z Pána prsteňov). Práve on navrhol postaviť trójskeho koňa, s pomocou
ktorého sa gréci ľsťou dostali do mesta Tróje a otvorili brány svojím vojskám...


Citácia:
DISC INFO:

Disc Title: Troja
Disc Size: 30 278 541 574 bytes
Protection: AACS
BD-Java: No
BDInfo: 0.5.6

PLAYLIST REPORT:

Name: 00100.MPLS
Length: 2:42:47 (h:m:s)
Size: 0 bytes
Total Bitrate: 0,00 Mbps

VIDEO:

Codec Bitrate Description
----- ------- -----------
VC-1 Video 0 kbps 1080p / 23,976 fps / 16:9 / Advanced Profile 3

AUDIO:

Codec Language Bitrate Description
----- -------- ------- -----------
Dolby TrueHD Audio English 0 kbps 5.1 / 48 kHz / 16-bit (AC3 Embedded: 5.1 / 48 kHz / 640 kbps / DN -4dB)
Dolby Digital Audio English 640 kbps 5.1 / 48 kHz / 640 kbps / DN -4dB
Dolby Digital Audio Czech 640 kbps 5.1 / 48 kHz / 640 kbps / DN -4dB
Dolby Digital Audio Hungarian 640 kbps 5.1 / 48 kHz / 640 kbps / DN -4dB
Dolby Digital Audio Polish 640 kbps 5.1 / 48 kHz / 640 kbps / DN -4dB
Dolby Digital Audio Thai 640 kbps 5.1 / 48 kHz / 640 kbps / DN -4dB
Dolby Digital Audio Russian 192 kbps 2.0 / 48 kHz / 192 kbps / DN -4dB / Dolby Surround
Dolby Digital Audio Turkish 192 kbps 2.0 / 48 kHz / 192 kbps / DN -4dB / Dolby Surround

SUBTITLES:

Codec Language Bitrate Description
----- -------- ------- -----------
Presentation Graphics English 0,000 kbps
Presentation Graphics Arabic 0,000 kbps
Presentation Graphics Bulgarian 0,000 kbps
Presentation Graphics Croatian 0,000 kbps
Presentation Graphics Czech 0,000 kbps
Presentation Graphics Estonian 0,000 kbps
Presentation Graphics Greek 0,000 kbps
Presentation Graphics Hebrew 0,000 kbps
Presentation Graphics Hungarian 0,000 kbps
Presentation Graphics Chinese 0,000 kbps
Presentation Graphics Icelandic 0,000 kbps
Presentation Graphics Korean 0,000 kbps
Presentation Graphics Latvian 0,000 kbps
Presentation Graphics Lithuanian 0,000 kbps
Presentation Graphics Polish 0,000 kbps
Presentation Graphics Portuguese 0,000 kbps
Presentation Graphics Romanian 0,000 kbps
Presentation Graphics Russian 0,000 kbps
Presentation Graphics Serbian 0,000 kbps
Presentation Graphics Slovenian 0,000 kbps
Presentation Graphics Thai 0,000 kbps
Presentation Graphics Turkish 0,000 kbps
Presentation Graphics Ukrainian 0,000 kbps

ImageSpojit Total Commanderem
ImageImage

fastshare

Linky sa zobrazia až po prihlásení. Prihlás sa
Chces vidieť plný obsah a nie si zaregistrovaný? Zaregistruj sa

hellshare

Linky sa zobrazia až po prihlásení. Prihlás sa
Chces vidieť plný obsah a nie si zaregistrovaný? Zaregistruj sa

share-rapid

Linky sa zobrazia až po prihlásení. Prihlás sa
Chces vidieť plný obsah a nie si zaregistrovaný? Zaregistruj sa


Linky jsou kombinovatelné
Pokud se Ti tento upload líbí,kup si ORIGINÁLNÍ VERZI
PODĚKOVÁNÍ VÁM NEUBLÍŽÍ A MĚ MOTIVUJE
Jak předejít infarktu?Poslat do řiti každého dřív,než Tě nasere,,,
enjoy_by_lepin
Image
Image
Zobrazit informácie o autoroviOdoslať súkromnú správu
Kocour57   
Warezák


Založený: 15.09.2011
Príspevky: 1303
SMS donate: 0

PríspevokZaslal: Ut Mar 26, 2013 11:58 am Odpovedať s citátomCelkom dole

Troja / Troy (2004)

Image

Image

Akční / Dobrodružný / Válečný

USA / Malta / Velká Británie, 2004, 157 min (Director's cut: 201 min)
Režie:
Wolfgang Petersen
Scénář:
David Benioff
Kamera:
Roger Pratt
Hudba:
James Horner
Hrají:
Julian Glover, Brian Cox, Brad Pitt, Eric Bana, Orlando Bloom, Diane Kruger, Sean Bean, Peter O'Toole, Julie Christie, Saffron Burrows, Brendan Gleeson, Nigel Terry, Trevor Eve, Rose Byrne, Alex King, James Cosmo, Garrett Hedlund, Nathan Jones, Tyler Mane, Vincent Regan, Owain Yeoman, John Shrapnel
Obsah

Príčinou konfliktu, ktorý prerástol do legendárnej trójskej vojny, bola žena. Paris (Orlando Bloom), syn trójskeho kráľa Priama, mal rozhodnúť, ktorá z troch bohyní (Athéna, Afrodita, Héra) je najkrajšia. Afrodita mu v silnej túžbe po víťazstve prisľúbila najlákavejšiu odmenu - najkrajšiu pozemskú ženu. Paris jej úplatku podľahol a zvolil ju. Na oplátku potom Afrodita v roku 1193 pred n.l. pomohla Parisovi s únosom krásnej Heleny, ktorá bola manželkou Menelausa - kráľa Sparty. Navyše Paris okrem Heleny ukradol Menelausovi aj plnú kráľovskú pokladnicu. Tieto podlé činy sa stali dôvodom desať rokov trvajúcej vojny medzi obyvateľmi Tróje a gréckymi vojskami. Na obidvoch znepriatelených stranách stáli vodcovia a bojovníci, ktorých mená sú opradené slávou i v dnešných časoch. Do čela trójskej armády sa postavil Parisov brat Hector (Eric Bana - Hulk) a Grékov do vojny viedol Achilles (Brad Pitt) s výdatnou pomocou slávneho Odyssea (Sean Bean - Boromir z Pána prsteňov). Práve on navrhol postaviť trójskeho koňa, s pomocou ktorého sa gréci ľsťou dostali do mesta Tróje a otvorili brány svojím vojskám

Legendárny príbeh o príčine, priebehu a výsledku trójskej vojny ako prvý zaznamenal grécky spisovateľ Homér v epose Ilias a čiastočne aj v druhom s názvom Oddysea. Na filmové plátno sa ho rozhodol previesť Wolfgang Petersen (Nekonečný príbeh), režisér nemeckého pôvodu. Okrem hviezdneho hereckého obsadenia nás čakajú vďaka vysokému rozpočtu (135 miliónov dolárov) aj obrovské epické súboje, v ktorých sa naraz objaví až 1.000 lodí a 75.000 bojovníkov.

Image

Linky sa zobrazia až po prihlásení. Prihlás sa
Chces vidieť plný obsah a nie si zaregistrovaný? Zaregistruj sa


Formát : Matroska
Format_Version : Version 4 / Version 2
Velikost souboru : 10,8 GiB
Duration/String : 2h 42mn
Celkový BitRate : 9 511 Kbps
Encoded date : UTC 2013-03-25 06:23:20
Použitý software : mkvmerge v6.1.0 ('Old Devil') built on Mar 2 2013 14:32:37
Enkódoval : libebml v1.3.0 + libmatroska v1.4.0

Video
ID : 1
Formát : AVC
Formát/ : Advanced Video Codec
Format_Profile : Main@L4.0
Format_Settings_CABAC/String : Ano
Format_Settings_RefFrames/String : 4 frame
CodecID : V_MPEG4/ISO/AVC
Duration/String : 2h 42mn
Bit rate : 8 000 Kbps
Šířka : 1 920pixely
Výška : 796pixely
Poměr stran : 2,40:1
Frame rate : 23,976 fps
ColorSpace : YUV
ChromaSubsampling : 4:2:0
BitDepth/String : 8 bits
ScanType/String : Progressive
Bits/(Pixel*Frame) : 0.218
StreamSize/String : 8,88 GiB (82%)
Enkódoval : x264 core 120
Nastavení enkoderu : cabac=1 / ref=1 / deblock=1:0:0 / analyse=0x1:0x111 / me=hex / subme=2 / psy=1 / psy_rd=1.00:0.00 / mixed_ref=0 / me_range=16 / chroma_me=1 / trellis=0 / 8x8dct=0 / cqm=0 / deadzone=21,11 / fast_pskip=1 / chroma_qp_offset=0 / threads=6 / sliced_threads=0 / nr=0 / decimate=1 / interlaced=0 / bluray_compat=0 / constrained_intra=0 / bframes=3 / b_pyramid=2 / b_adapt=1 / b_bias=0 / direct=1 / weightb=1 / open_gop=0 / weightp=1 / keyint=240 / keyint_min=24 / scenecut=40 / intra_refresh=0 / rc_lookahead=10 / rc=2pass / mbtree=1 / bitrate=8000 / ratetol=1.0 / qcomp=0.60 / qpmin=3 / qpmax=69 / qpstep=4 / cplxblur=20.0 / qblur=0.5 / ip_ratio=1.40 / aq=1:1.00
Jazyk : English
Default : Ano
Forced : Ne
colour_primaries : BT.709
transfer_characteristics : BT.709
matrix_coefficients : BT.709

Audio
ID : 2
Formát : DTS
Formát/ : Digital Theater Systems
Format_Settings_Mode : 16
Format_Settings_Endianness : Big
CodecID : A_DTS
Duration/String : 2h 42mn
Bit rate : 1 509 Kbps
Kanál(y) : 6 kanály
Channel positions : Front: L C R, Side: L R, LFE
Sampling rate : 48,0 KHz
BitDepth/String : 24 bits
StreamSize/String : 1,72 GiB (16%)
Titul : 5.1 DTS 1536 kbps
Jazyk : Czech
Default : Ano
Forced : Ne

Text
ID : 3
Formát : UTF-8
CodecID : S_TEXT/UTF8
/ : UTF-8 Plain Text
Jazyk : Czech
Default : Ne
Forced : Ne



Image
Image


Linky sa zobrazia až po prihlásení. Prihlás sa
Chces vidieť plný obsah a nie si zaregistrovaný? Zaregistruj sa


Image


Linky sa zobrazia až po prihlásení. Prihlás sa
Chces vidieť plný obsah a nie si zaregistrovaný? Zaregistruj sa



VLOŽEN ZÁZNAM NA OPRAVU DAT 10 %


Image


Linky sa zobrazia až po prihlásení. Prihlás sa
Chces vidieť plný obsah a nie si zaregistrovaný? Zaregistruj sa
Zobrazit informácie o autoroviOdoslať súkromnú správu
atrej07   
Pokročilý


Založený: 09.02.2013
Príspevky: 189
SMS donate: 0

PríspevokZaslal: St Mar 27, 2013 12:18 pm Odpovedať s citátomCelkom dole

Troja / Troy (2004)
audio: 5.1 CZ
titulky: none
rozlisenie: 1920 x 1080
size: 9.10 GiB
format: Mp4

Image

Image

Image

Linky sa zobrazia až po prihlásení. Prihlás sa
Chces vidieť plný obsah a nie si zaregistrovaný? Zaregistruj sa


Image

Akční / Dobrodružný / Válečný
USA / Malta / Velká Británie, 2004, 157 min (Director's cut: 201 min)

Režie:Wolfgang Petersen
Scénář:David Benioff
Kamera:Roger Pratt
Hudba:James Horner
Hrají:Julian Glover, Brian Cox, Brad Pitt, Eric Bana, Orlando Bloom, Diane Kruger, Sean Bean, Peter O'Toole, Julie Christie, Saffron Burrows, Brendan Gleeson, Nigel Terry, Trevor Eve, Rose Byrne, Alex King, James Cosmo, Garrett Hedlund, Nathan Jones, Tyler Mane, Vincent Regan, Owain Yeoman, John Shrapnel

Citácia:
Príčinou konfliktu, ktorý prerástol do legendárnej trójskej vojny, bola žena. Paris (Orlando Bloom), syn trójskeho kráľa Priama, mal rozhodnúť, ktorá z troch bohyní (Athéna, Afrodita, Héra) je najkrajšia. Afrodita mu v silnej túžbe po víťazstve prisľúbila najlákavejšiu odmenu - najkrajšiu pozemskú ženu. Paris jej úplatku podľahol a zvolil ju. Na oplátku potom Afrodita v roku 1193 pred n.l. pomohla Parisovi s únosom krásnej Heleny, ktorá bola manželkou Menelausa - kráľa Sparty. Navyše Paris okrem Heleny ukradol Menelausovi aj plnú kráľovskú pokladnicu. Tieto podlé činy sa stali dôvodom desať rokov trvajúcej vojny medzi obyvateľmi Tróje a gréckymi vojskami. Na obidvoch znepriatelených stranách stáli vodcovia a bojovníci, ktorých mená sú opradené slávou i v dnešných časoch. Do čela trójskej armády sa postavil Parisov brat Hector (Eric Bana - Hulk) a Grékov do vojny viedol Achilles (Brad Pitt) s výdatnou pomocou slávneho Odyssea (Sean Bean - Boromir z Pána prsteňov). Práve on navrhol postaviť trójskeho koňa, s pomocou ktorého sa gréci ľsťou dostali do mesta Tróje a otvorili brány svojím vojskám

Legendárny príbeh o príčine, priebehu a výsledku trójskej vojny ako prvý zaznamenal grécky spisovateľ Homér v epose Ilias a čiastočne aj v druhom s názvom Oddysea. Na filmové plátno sa ho rozhodol previesť Wolfgang Petersen (Nekonečný príbeh), režisér nemeckého pôvodu. Okrem hviezdneho hereckého obsadenia nás čakajú vďaka vysokému rozpočtu (135 miliónov dolárov) aj obrovské epické súboje, v ktorých sa naraz objaví až 1.000 lodí a 75.000 bojovníkov.



Linky sa zobrazia až po prihlásení. Prihlás sa
Chces vidieť plný obsah a nie si zaregistrovaný? Zaregistruj sa



Linky sa zobrazia až po prihlásení. Prihlás sa
Chces vidieť plný obsah a nie si zaregistrovaný? Zaregistruj sa


Image

Linky sa zobrazia až po prihlásení. Prihlás sa
Chces vidieť plný obsah a nie si zaregistrovaný? Zaregistruj sa


AKTUALIZOVANE LINKY AKO AJ DALSIE FILMY VO VYSOKOM ROZLISENI NAJDETE AJ V ZLOZKE:

Linky sa zobrazia až po prihlásení. Prihlás sa
Chces vidieť plný obsah a nie si zaregistrovaný? Zaregistruj sa

alebo

Linky sa zobrazia až po prihlásení. Prihlás sa
Chces vidieť plný obsah a nie si zaregistrovaný? Zaregistruj sa
Zobrazit informácie o autoroviOdoslať súkromnú správu
asdfghjkl   
Nováčik


Založený: 05.03.2007
Príspevky: 50
SMS donate: 0

PríspevokZaslal: St Okt 09, 2013 11:15 am Odpovedať s citátomCelkom dole

Název: Troja / Troy (2004)

Zdroj: Troy.2004.Theatrical.Cut.BluRay.1080p.x264.DTS.dxva-xXx.En.CZ

Image

Image

Image


Linky sa zobrazia až po prihlásení. Prihlás sa
Chces vidieť plný obsah a nie si zaregistrovaný? Zaregistruj sa


Image

Citácia:
Akční / Dobrodružný / Válečný
USA / Malta / Velká Británie, 2004, 157 min (Director's cut: 201 min)


CSFD 70 %
IMDb Rating 7.0


Režie: Wolfgang Petersen
Hudba: James Horner
Hrají: Julian Glover, Brian Cox, Brad Pitt, Eric Bana, Orlando Bloom, Diane Kruger, Sean Bean, Peter O'Toole, Julie Christie, Saffron Burrows, Brendan Gleeson, Nigel Terry, Trevor Eve, Rose Byrne, Alex King, James Cosmo, Garrett Hedlund, Nathan Jones, Tyler Mane, Vincent Regan, Owain Yeoman, John Shrapnel


Príčinou konfliktu, ktorý prerástol do legendárnej trójskej vojny, bola žena. Paris (Orlando Bloom), syn trójskeho kráľa Priama, mal rozhodnúť, ktorá z troch bohyní (Athéna, Afrodita, Héra) je najkrajšia. Afrodita mu v silnej túžbe po víťazstve prisľúbila najlákavejšiu odmenu - najkrajšiu pozemskú ženu. Paris jej úplatku podľahol a zvolil ju. Na oplátku potom Afrodita v roku 1193 pred n.l. pomohla Parisovi s únosom krásnej Heleny, ktorá bola manželkou Menelausa - kráľa Sparty. Navyše Paris okrem Heleny ukradol Menelausovi aj plnú kráľovskú pokladnicu. Tieto podlé činy sa stali dôvodom desať rokov trvajúcej vojny medzi obyvateľmi Tróje a gréckymi vojskami. Na obidvoch znepriatelených stranách stáli vodcovia a bojovníci, ktorých mená sú opradené slávou i v dnešných časoch. Do čela trójskej armády sa postavil Parisov brat Hector (Eric Bana - Hulk) a Grékov do vojny viedol Achilles (Brad Pitt) s výdatnou pomocou slávneho Odyssea (Sean Bean - Boromir z Pána prsteňov). Práve on navrhol postaviť trójskeho koňa, s pomocou ktorého sa gréci ľsťou dostali do mesta Tróje a otvorili brány svojím vojskám

Legendárny príbeh o príčine, priebehu a výsledku trójskej vojny ako prvý zaznamenal grécky spisovateľ Homér v epose Ilias a čiastočne aj v druhom s názvom Oddysea. Na filmové plátno sa ho rozhodol previesť Wolfgang Petersen (Nekonečný príbeh), režisér nemeckého pôvodu. Okrem hviezdneho hereckého obsadenia nás čakajú vďaka vysokému rozpočtu (135 miliónov dolárov) aj obrovské epické súboje, v ktorých sa naraz objaví až 1.000 lodí a 75.000 bojovníkov. (oficiální text distributora)


Complete name : D:\filmy download\Srn.by.dadinek2.of.poweruploaders\Troy.2004.Theatrical.Cut.BluRay.1080p.x264.DTS.dxva-xXx.mkv
Format : Matroska
File size : 13.7 GiB
Duration : 2h 42mn
Overall bit rate : 12.0 Mbps
Encoded date : UTC 2011-01-18 19:40:08
Writing application : mkvmerge v4.4.0 ('Die Wiederkehr') built on Oct 31 2010 21:52:48
Writing library : libebml v1.0.0 + libmatroska v1.0.0

Video
ID : 1
Format : AVC
Format/Info : Advanced Video Codec
Format profile : High@L4.1
Format settings, CABAC : Yes
Format settings, ReFrames : 5 frames
Muxing mode : Container profile=Unknown@4.1
Codec ID : V_MPEG4/ISO/AVC
Duration : 2h 42mn
Bit rate : 8 753 Kbps
Nominal bit rate : 9 000 Kbps
Width : 1 920 pixels
Height : 796 pixels
Display aspect ratio : 2.412
Frame rate : 23.976 fps
Resolution : 24 bits
Colorimetry : 4:2:0
Scan type : Progressive
Bits/(Pixel*Frame) : 0.239
Stream size : 9.94 GiB (73%)
Writing library : x264 core 98 r1649 20cbe10
Encoding settings : cabac=1 / ref=5 / deblock=1:-3:-3 / analyse=0x3:0x113 / me=umh / subme=10 / psy=1 / psy_rd=0.00:0.00 / mixed_ref=1 / me_range=64 / chroma_me=1 / trellis=2 / 8x8dct=1 / cqm=0 / deadzone=21,11 / fast_pskip=0 / chroma_qp_offset=0 / threads=18 / sliced_threads=0 / nr=0 / decimate=0 / interlaced=0 / constrained_intra=0 / bframes=6 / b_pyramid=2 / b_adapt=2 / b_bias=0 / direct=3 / weightb=1 / weightp=2 / keyint=250 / keyint_min=25 / scenecut=40 / intra_refresh=0 / rc_lookahead=50 / rc=2pass / mbtree=1 / bitrate=9000 / ratetol=1.0 / qcomp=0.60 / qpmin=10 / qpmax=51 / qpstep=4 / cplxblur=20.0 / qblur=0.5 / vbv_maxrate=38000 / vbv_bufsize=30000 / ip_ratio=1.40 / aq=1:0.70 / nal_hrd=none

Audio #1
ID : 2
Format : DTS
Format/Info : Digital Theater Systems
Codec ID : A_DTS
Duration : 2h 42mn
Bit rate mode : Constant
Bit rate : 1 510 Kbps
Channel(s) : 6 channels
Channel positions : Front: L C R, Surround: L R, LFE
Sampling rate : 48.0 KHz
Resolution : 24 bits
Stream size : 1.72 GiB (13%)
Title : 5.1 DTS 1536 kbps

Audio #2
ID : 3
Format : DTS
Format/Info : Digital Theater Systems
Codec ID : A_DTS
Duration : 2h 42mn
Bit rate mode : Constant
Bit rate : 1 510 Kbps
Channel(s) : 6 channels
Channel positions : Front: L C R, Surround: L R, LFE
Sampling rate : 48.0 KHz
Resolution : 24 bits
Stream size : 1.72 GiB (13%)
Title : 5.1 DTS 1536 kbps
Language : Czech

Text
ID : 4
Format : UTF-8
Codec ID : S_TEXT/UTF8
Codec ID/Info : UTF-8 Plain Text
Language : Czech




Linky sa zobrazia až po prihlásení. Prihlás sa
Chces vidieť plný obsah a nie si zaregistrovaný? Zaregistruj sa
Zobrazit informácie o autoroviOdoslať súkromnú správu
lepin   
Uploader


Založený: 03.06.2007
Príspevky: 6777
SMS donate: 0

PríspevokZaslal: Ut Jan 10, 2017 20:59 pm Odpovedať s citátomCelkom dole

Troja / Troy (2004)
Trója

Image
Akční / Dobrodružný / Válečný
USA / Malta / Velká Británie, 2004, 157 min (Director's cut: 201 min)

Linky sa zobrazia až po prihlásení. Prihlás sa
Chces vidieť plný obsah a nie si zaregistrovaný? Zaregistruj sa

Režie: Wolfgang Petersen
Předloha: Homér (kniha)
Scénář: David Benioff
Kamera: Roger Pratt
Hudba: James Horner
Hrají: Julian Glover, Brian Cox, Brad Pitt, Eric Bana, Orlando Bloom, Diane Kruger, Sean Bean, Peter O'Toole, Julie Christie, Saffron Burrows, Brendan Gleeson, Nigel Terry, Trevor Eve, Rose Byrne, Alex King, James Cosmo, Garrett Hedlund, Nathan Jones, Tyler Mane, Vincent Regan, Owain Yeoman, John Shrapnel, Mark Lewis Jones, Louis Dempsey, Adoni Maropis, Jacob Smith, Tim Chipping, Ken Bones, Siri Svegler

Obsah:

Roku 1193 před naším letopočtem sjednotil mykénský král Agamemnón řecká království. Když však jeho bratr, spartský král Meneláos, oslavoval mír s trójskými princi Hektorem a Paridem, jeho krásná mladá žena Helena a pohledný Paris se do sebe zamilovali. Když Hektor další den zjistí, že si bratr veze domů Helenu, která utekla od nenáviděného manžela, je mu jasné, že to znamená válku. Agamemnón využije situace a začne chystat tažení pod záminkou Meneláovy urážky. Nedbá varování svého rádce, že Trója nikdy nebyla dobyta a Hektor je velmi dobrý vojevůdce. Spoléhá na svou armádu a nezranitelného válečníka Achillea. Ten skutečně do boje vyrazí, přestože Agamemnóna nesnáší a jeho matka, bohyně Thetis, mu prorokuje, že pokud odjede bojovat proti Tróji, zemře. Helena i Paris se trápí tím, co způsobili, v rozchodu však nevidí řešení. Uvědomují si, že Helenin útěk je pouhou záminkou. Trójané překvapivě v boji zvítězí, protože na straně Řeků nebojuje Achilleus, kterého král urazil, když mu sebral válečnou kořist v podobě krásné Hektorovy sestřenice Bríseovny. Vítězstvím opojení obránci města se přes varování Hektora rozhodnou pro další útok. Když v souboji s Achillem padne Hektor, slíbí bojovník trojskému králi Priamovi, že po dvanáct dnů, kdy budou probíhat smuteční slavnosti, Řekové město nenapadnou. O dva týdny později najdou Trójané řecký tábor prázdný. Jen na břehu stojí obrovská socha koně. Podle kněze je to dar.


Citácia:
QUICK SUMMARY:

Disc Title: TROY
Disc Size: 30 278 543 713 bytes
Protection: AACS
BD-Java: No
Playlist: 00431.MPLS
Size: 0 bytes
Length: 2:42:47.632
Total Bitrate: 0,00 Mbps
Video: VC-1 Video / 0 kbps / 1080p / 23,976 fps / 16:9 / Advanced Profile 3
Audio: English / Dolby Digital Audio / 5.1 / 48 kHz / 640 kbps / DN -4dB
Audio: Czech / Dolby Digital Audio / 5.1 / 48 kHz / 640 kbps / DN -4dB
Audio: Hungarian / Dolby Digital Audio / 5.1 / 48 kHz / 640 kbps / DN -4dB
Audio: Polish / Dolby Digital Audio / 5.1 / 48 kHz / 640 kbps / DN -4dB
Audio: Russian / Dolby Digital Audio / 2.0 / 48 kHz / 192 kbps / DN -4dB / Dolby Surround
Audio: Thai / Dolby Digital Audio / 5.1 / 48 kHz / 640 kbps / DN -4dB
Audio: Turkish / Dolby Digital Audio / 2.0 / 48 kHz / 192 kbps / DN -4dB / Dolby Surround
Audio: English / Dolby TrueHD Audio / 5.1 / 48 kHz / 16-bit (AC3 Embedded: 5.1 / 48 kHz / 640 kbps / DN -4dB)
Subtitle: English / 0,000 kbps
Subtitle: Chinese / 0,000 kbps
Subtitle: Korean / 0,000 kbps
Subtitle: Arabic / 0,000 kbps
Subtitle: Bulgarian / 0,000 kbps
Subtitle: Croatian / 0,000 kbps
Subtitle: Czech / 0,000 kbps
Subtitle: Estonian / 0,000 kbps
Subtitle: Hebrew / 0,000 kbps
Subtitle: Hungarian / 0,000 kbps
Subtitle: Icelandic / 0,000 kbps
Subtitle: Latvian / 0,000 kbps
Subtitle: Lithuanian / 0,000 kbps
Subtitle: Polish / 0,000 kbps
Subtitle: Portuguese / 0,000 kbps
Subtitle: Romanian / 0,000 kbps
Subtitle: Russian / 0,000 kbps
Subtitle: Serbian / 0,000 kbps
Subtitle: Slovenian / 0,000 kbps
Subtitle: Thai / 0,000 kbps
Subtitle: Turkish / 0,000 kbps
Subtitle: Ukrainian / 0,000 kbps
Subtitle: Greek / 0,000 kbps


Bez HESLA
PŘED STAHOVÁNÍM JE TŘEBA ZKONTROLOVAT FUNKČNOST LINKŮ !!!

PŘIDÁN ZÁZNAM NA OPRAVU DAT 5% .POKUD ARCHÍV NEJDE ROZBALIT A HLASÍ CHYBU CRC,
JE POTŘEBA OPRAVA VE WINRARU.

Rary nezálohuju!!! Po nabonzování novej up
ImageImage
Image
fastshare

Linky sa zobrazia až po prihlásení. Prihlás sa
Chces vidieť plný obsah a nie si zaregistrovaný? Zaregistruj sa

sdilej

Linky sa zobrazia až po prihlásení. Prihlás sa
Chces vidieť plný obsah a nie si zaregistrovaný? Zaregistruj sa

euroshare

Linky sa zobrazia až po prihlásení. Prihlás sa
Chces vidieť plný obsah a nie si zaregistrovaný? Zaregistruj sa

hellshare

Linky sa zobrazia až po prihlásení. Prihlás sa
Chces vidieť plný obsah a nie si zaregistrovaný? Zaregistruj sa

Linky jsou kombinovatelné
STÁHNOUT,VYZKOUŠET A POSOUDIT,ZDA KOUPIT,NEBO NEKOUPIT,,,
Pokud jsi můj upload stáhl a líbil se Ti,kup si ho,dokud je ještě k mání.
PODĚKOVÁNÍ VÁM NEUBLÍŽÍ A MĚ MOTIVUJE
Jak předejít infarktu?Poslat do řiti každého dřív,než Tě nasere,,,
enjoy_by_lepin
Image
Image
Zobrazit informácie o autoroviOdoslať súkromnú správu
Sťahuj z HELLSHARE neobmedzene bez premium účtu!
Zobraziť príspevky z predchádzajúcich:      
Odpovedať na tému Thank Post


 Prejdi na:   



Zobraziť nasledujúcu tému
Zobraziť predchádzajúcu tému
Nemôžete odosielať nové témy do tohto fóra
Nemôžete odpovedať na témy v tomto fóre
Nemôžete upravovať svoje príspevky v tomto fóre
Nemôžete mazať svoje príspevky v tomto fóre
Nemôžete hlasovať v tomto fóre


Upozornenie: Žiadny zo zobrazovaných súborov sa nenachádza na tomto serveri. Autor stránky neberie žiadnu zodpovednost za príspevky odoslané uživatelmi. Nepoužívajte tieto stránky k distribúcii alebo k downloadu akýchkolvek materiálov, ku ktorým nemáte legálne opravnenie alebo licenciu. Všetky príspevky sem vkladáte na vlastnú zodpovednost. Autor stránky odmieta akúkolvek zodpovednost za prípadne porušovanie zákonov. Kopírovanie obsahu bez písomného súhlasu autora stránky je trestné.
V prípade, že ste narazili na nelegálny obsah prosím okamžite kontaktujte administrátora portálu.



Powered by phpBB © 2005 phpBB Group :: Časy uvádzané v GMT + 1 hodina
[ Nacítanie: 0.5s ] :: [ 28 Queries ] :: [ 28,222 stránok za dnes ] :: [ Dnes DB: 521,185 ] :: [ Max DB: 13,059,503 ]