Obsah fóra www.lamky.net

lamky.net banner
Registrácia  •  Prihlásenie
 Lososí farmy Zobraziť nasledujúcu tému
Zobraziť predchádzajúcu tému

Pridat tému do záložiek
Odpovedať na tému Thank Post
Autor Správa
cybernetic   
Nováčik


Založený: 07.12.2007
Príspevky: 96
SMS donate: 0
Bydlisko: East sidE - svk

PríspevokZaslal: St Jún 01, 2016 10:02 am Odpovedať s citátomCelkom dole

Lososí farmy


info

Linky sa zobrazia až po prihlásení. Prihlás sa
Chces vidieť plný obsah a nie si zaregistrovaný? Zaregistruj sa



Citácia:
John Fredriksen je jedním z nejbohatších mužů světa. V Norsku se mu přezdívá "Velký vlk". Na veřejnosti se vůbec neukazuje. Jeho majetek je úzce spjatý s mořem. Vlastní lodě, ropné plošiny - a farmy na chov lososů. Jih Chile je rájem nedotčené přírody. Jako houby po dešti se tu však začaly objevovat lososí farmy. Největším investorem je společnost Johna Fredriksena Marine Harves. Každým rokem odsud putuje k zákazníkům v Evropě, Japonsku a ve Spojených státech sto miliónů lososů, což představuje třetinu světové spotřeby.(oficiální text distributora)



Citácia:
Format : AVI
Format/Info : Audio Video Interleave
File size : 489 MiB
Duration : 51mn 39s
Overall bit rate : 1 323 Kbps

Video
ID : 0
Format : MPEG-4 Visual
Format profile : Advanced Simple@L5
Format settings, BVOP : 2
Format settings, QPel : Yes
Format settings, GMC : 3 warppoints
Format settings, Matrix : Default (H.263)
Codec ID : XVID
Codec ID/Hint : XviD
Duration : 51mn 39s
Bit rate : 1 182 Kbps
Width : 720 pixels
Height : 400 pixels
Display aspect ratio : 16:9
Frame rate : 25.000 fps
Color space : YUV
Chroma subsampling : 4:2:0
Bit depth : 8 bits
Scan type : Progressive
Compression mode : Lossy
Bits/(Pixel*Frame) : 0.164
Stream size : 437 MiB (89%)
Writing library : XviD 1.2.1 (UTC 2008-12-04)

Audio
ID : 1
Format : MPEG Audio
Format version : Version 1
Format profile : Layer 3
Codec ID : 55
Codec ID/Hint : MP3
Duration : 51mn 39s
Source duration : 51mn 39s
Bit rate mode : Constant
Bit rate : 128 Kbps
Channel(s) : 2 channels
Sampling rate : 48.0 KHz
Compression mode : Lossy
Stream size : 47.3 MiB (10%)
Alignment : Split accross interleaves
Interleave, duration : 24 ms (0.60 video frame)
Writing library : LAME3.98.4





Linky sa zobrazia až po prihlásení. Prihlás sa
Chces vidieť plný obsah a nie si zaregistrovaný? Zaregistruj sa
Zobrazit informácie o autoroviOdoslať súkromnú správu
Sťahuj z HELLSHARE neobmedzene bez premium účtu!
Zobraziť príspevky z predchádzajúcich:      
Odpovedať na tému Thank Post


 Prejdi na:   



Zobraziť nasledujúcu tému
Zobraziť predchádzajúcu tému
Nemôžete odosielať nové témy do tohto fóra
Nemôžete odpovedať na témy v tomto fóre
Nemôžete upravovať svoje príspevky v tomto fóre
Nemôžete mazať svoje príspevky v tomto fóre
Nemôžete hlasovať v tomto fóre


Upozornenie: Žiadny zo zobrazovaných súborov sa nenachádza na tomto serveri. Autor stránky neberie žiadnu zodpovednost za príspevky odoslané uživatelmi. Nepoužívajte tieto stránky k distribúcii alebo k downloadu akýchkolvek materiálov, ku ktorým nemáte legálne opravnenie alebo licenciu. Všetky príspevky sem vkladáte na vlastnú zodpovednost. Autor stránky odmieta akúkolvek zodpovednost za prípadne porušovanie zákonov. Kopírovanie obsahu bez písomného súhlasu autora stránky je trestné.
V prípade, že ste narazili na nelegálny obsah prosím okamžite kontaktujte administrátora portálu.



Powered by phpBB © 2005 phpBB Group :: Časy uvádzané v GMT + 1 hodina
[ Nacítanie: 0.1s ] :: [ 21 Queries ] :: [ 25,161 stránok za dnes ] :: [ Dnes DB: 470,526 ] :: [ Max DB: 13,059,503 ]