Obsah fóra www.lamky.net

lamky.net banner
Registrácia  •  Prihlásenie
 DARPA: V laboratoři amerických tajných zbraní (2008) Zobraziť nasledujúcu tému
Zobraziť predchádzajúcu tému

Pridat tému do záložiek
Odpovedať na tému Thank Post
Autor Správa
Defiant   
Report poster


Založený: 13.01.2007
Príspevky: 250
SMS donate: 0
Bydlisko: Somewhere Between the Stars

PríspevokZaslal: Ne Máj 06, 2012 18:15 pm Odpovedať s citátomCelkom dole

DARPA: V laboratoři amerických tajných zbraní / Inside America's Secret Weapons Lab: DARPA (2008)

Image

Pořad nabízí exkluzivní pohled za zavřené dveře jednoho z nejtajnějších amerických úřadů - Divize R & D amerického Ministerstva obrany. V rámci rozsáhlé prohlídky odlehlých testovacích areálů, tajných laboratoří a podvodních výzkumných zařízení v různých koutech Ameriky se vydáme tam, kam byly cizí kamery vpuštěny jen zřídka, abychom sledovali inovace, včetně skutečného 'Ironmana', který vojákům dodá nadlidskou sílu, mikro vzdušné prostředky, které na obloze fungují jako dalekohledy bojových letounů, a tajné testovací nadzvukové letadlo, jehož rychlost je pětkrát větší než rychlost zvuku. Staňte se svědky vývoje technologií, jež mají změnit hru a překvapit nepřítele - přelomových novinek, které proměňují science fiction ve skutečnost.


Linky sa zobrazia až po prihlásení. Prihlás sa
Chces vidieť plný obsah a nie si zaregistrovaný? Zaregistruj sa



Linky sa zobrazia až po prihlásení. Prihlás sa
Chces vidieť plný obsah a nie si zaregistrovaný? Zaregistruj sa
Zobrazit informácie o autoroviOdoslať súkromnú správu
Podakovania: VADER, iroot, sú vdační za túto tému.
cybernetic   
Nováčik


Založený: 07.12.2007
Príspevky: 96
SMS donate: 0
Bydlisko: East sidE - svk

PríspevokZaslal: Pi Máj 27, 2016 13:27 pm Odpovedať s citátomCelkom dole

DARPA: V laboratoři amerických tajných zbraní

info

Linky sa zobrazia až po prihlásení. Prihlás sa
Chces vidieť plný obsah a nie si zaregistrovaný? Zaregistruj sa


Citácia:
Pořad nabízí exkluzivní pohled za zavřené dveře jednoho z nejtajnějších amerických úřadů – Divize R & D amerického Ministerstva obrany. V rámci rozsáhlé prohlídky odlehlých testovacích areálů, tajných laboratoří a podvodních výzkumných zařízení v různých koutech Ameriky se vydáme tam, kam byly cizí kamery vpuštěny jen zřídka, abychom sledovali inovace, včetně skutečného „Ironmana“, který vojákům dodá nadlidskou sílu, mikro vzdušné prostředky, které na obloze fungují jako dalekohledy bojových letounů, a tajné testovací nadzvukové letadlo, jehož rychlost je pětkrát větší než rychlost zvuku. Staňte se svědky vývoje technologií, jež mají změnit hru a překvapit nepřítele – přelomových novinek, které proměňují science fiction ve skutečnost.(oficiální text distributora



Citácia:
Complete name : E:\DARPA.-.V.laboratori.americkych.tajnych.zbrani.2008.DVB.XviD.CZ.avi
Format : AVI
Format/Info : Audio Video Interleave
File size : 500 MiB
Duration : 45mn 59s
Overall bit rate mode : Variable
Overall bit rate : 1 519 Kbps
Writing application : VirtualDubMod 1.5.10.2 (build 2540/release)
Writing library : VirtualDubMod build 2540/release

Video
ID : 0
Format : MPEG-4 Visual
Format profile : Advanced Simple@L5
Format settings, BVOP : 2
Format settings, QPel : No
Format settings, GMC : No warppoints
Format settings, Matrix : Default (H.263)
Muxing mode : Packed bitstream
Codec ID : XVID
Codec ID/Hint : XviD
Duration : 45mn 59s
Bit rate : 1 406 Kbps
Width : 704 pixels
Height : 384 pixels
Display aspect ratio : 1.85:1
Frame rate : 25.000 fps
Color space : YUV
Chroma subsampling : 4:2:0
Bit depth : 8 bits
Scan type : Progressive
Compression mode : Lossy
Bits/(Pixel*Frame) : 0.208
Stream size : 463 MiB (93%)
Writing library : XviD 1.2.1 (UTC 2008-12-04)

Audio
ID : 1
Format : MPEG Audio
Format version : Version 1
Format profile : Layer 3
Mode : Joint stereo
Mode extension : MS Stereo
Codec ID : 55
Codec ID/Hint : MP3
Duration : 45mn 59s
Bit rate mode : Variable
Bit rate : 100 Kbps
Minimum bit rate : 32.0 Kbps
Channel(s) : 2 channels
Sampling rate : 48.0 KHz
Compression mode : Lossy
Stream size : 33.0 MiB (7%)
Alignment : Aligned on interleaves
Interleave, duration : 24 ms (0.60 video frame)
Interleave, preload duratio : 264 ms
Writing library : LAME3.98r
Encoding settings : -m j -V 5 -q 2 -lowpass 16.5 --vbr-new -b 32





Linky sa zobrazia až po prihlásení. Prihlás sa
Chces vidieť plný obsah a nie si zaregistrovaný? Zaregistruj sa
Zobrazit informácie o autoroviOdoslať súkromnú správu
Sťahuj z HELLSHARE neobmedzene bez premium účtu!
Zobraziť príspevky z predchádzajúcich:      
Odpovedať na tému Thank Post


 Prejdi na:   



Zobraziť nasledujúcu tému
Zobraziť predchádzajúcu tému
Nemôžete odosielať nové témy do tohto fóra
Nemôžete odpovedať na témy v tomto fóre
Nemôžete upravovať svoje príspevky v tomto fóre
Nemôžete mazať svoje príspevky v tomto fóre
Nemôžete hlasovať v tomto fóre


Upozornenie: Žiadny zo zobrazovaných súborov sa nenachádza na tomto serveri. Autor stránky neberie žiadnu zodpovednost za príspevky odoslané uživatelmi. Nepoužívajte tieto stránky k distribúcii alebo k downloadu akýchkolvek materiálov, ku ktorým nemáte legálne opravnenie alebo licenciu. Všetky príspevky sem vkladáte na vlastnú zodpovednost. Autor stránky odmieta akúkolvek zodpovednost za prípadne porušovanie zákonov. Kopírovanie obsahu bez písomného súhlasu autora stránky je trestné.
V prípade, že ste narazili na nelegálny obsah prosím okamžite kontaktujte administrátora portálu.



Powered by phpBB © 2005 phpBB Group :: Časy uvádzané v GMT + 1 hodina
[ Nacítanie: 0.1s ] :: [ 22 Queries ] :: [ 27,041 stránok za dnes ] :: [ Dnes DB: 493,286 ] :: [ Max DB: 13,059,503 ]