Obsah fóra www.lamky.net

lamky.net banner
Registrácia  •  Prihlásenie
 Cowspiracy Zobraziť nasledujúcu tému
Zobraziť predchádzajúcu tému

Pridat tému do záložiek
Odpovedať na tému Thank Post
Autor Správa
cybernetic   
Nováčik


Založený: 07.12.2007
Príspevky: 96
SMS donate: 0
Bydlisko: East sidE - svk

PríspevokZaslal: Pi Máj 27, 2016 12:19 pm Odpovedať s citátomCelkom dole

Cowspiracy - Klíč k udržitelnosti


info

Linky sa zobrazia až po prihlásení. Prihlás sa
Chces vidieť plný obsah a nie si zaregistrovaný? Zaregistruj sa



Citácia:
Dokument Cowspiracy si pokládá palčivou otázku – proč velké světové organizace na ochranu životního prostředí mlčí o největší ekologické hrozbě současnosti? Podle OSN je nejvýznamnějším znečišťovatelem planety a zároveň největším zdrojem skleníkových plynů živočišná výroba, tedy produkce masa, mléka a vajec. Nikdo o tom však nemluví. Spolu s filmaři se proto pokusíme nahlédnout do zákulisí velkých organizací jako je Greenpeace a položíme jim velmi nepříjemnou otázku. Co – nebo kdo – jim brání říkat pravdu?



Citácia:
Complete name : E:\Cowspiracy-Kluc_k_udržatelnosti_2014_sktit.avi
Format : AVI
Format/Info : Audio Video Interleave
File size : 513 MiB
Duration : 1h 30mn
Overall bit rate : 789 Kbps
Writing application : MEncoder SVN-r33883(20110719-gcc4.5.2)
Writing library : MPlayer

Video
ID : 0
Format : MPEG-4 Visual
Format profile : Advanced Simple@L5
Format settings, BVOP : 2
Format settings, QPel : No
Format settings, GMC : No warppoints
Format settings, Matrix : Default (H.263)
Codec ID : XVID
Codec ID/Hint : XviD
Duration : 1h 30mn
Bit rate : 649 Kbps
Width : 640 pixels
Height : 360 pixels
Display aspect ratio : 16:9
Frame rate : 23.976 fps
Color space : YUV
Chroma subsampling : 4:2:0
Bit depth : 8 bits
Scan type : Progressive
Compression mode : Lossy
Bits/(Pixel*Frame) : 0.117
Stream size : 422 MiB (82%)
Writing library : XviD 1.2.1 (UTC 2008-12-04)

Audio
ID : 1
Format : MPEG Audio
Format version : Version 1
Format profile : Layer 3
Mode : Joint stereo
Mode extension : MS Stereo
Codec ID : 55
Codec ID/Hint : MP3
Duration : 1h 30mn
Bit rate mode : Constant
Bit rate : 128 Kbps
Channel(s) : 2 channels
Sampling rate : 44.1 KHz
Compression mode : Lossy
Delay relative to video : 42ms
Stream size : 83.2 MiB (16%)
Alignment : Aligned on interleaves
Interleave, duration : 26 ms (0.63 video frame)
Interleave, preload duratio : 522 ms
Writing library : LAME3.98.4





Linky sa zobrazia až po prihlásení. Prihlás sa
Chces vidieť plný obsah a nie si zaregistrovaný? Zaregistruj sa
Zobrazit informácie o autoroviOdoslať súkromnú správu
Sťahuj z HELLSHARE neobmedzene bez premium účtu!
Zobraziť príspevky z predchádzajúcich:      
Odpovedať na tému Thank Post


 Prejdi na:   



Zobraziť nasledujúcu tému
Zobraziť predchádzajúcu tému
Nemôžete odosielať nové témy do tohto fóra
Nemôžete odpovedať na témy v tomto fóre
Nemôžete upravovať svoje príspevky v tomto fóre
Nemôžete mazať svoje príspevky v tomto fóre
Nemôžete hlasovať v tomto fóre


Upozornenie: Žiadny zo zobrazovaných súborov sa nenachádza na tomto serveri. Autor stránky neberie žiadnu zodpovednost za príspevky odoslané uživatelmi. Nepoužívajte tieto stránky k distribúcii alebo k downloadu akýchkolvek materiálov, ku ktorým nemáte legálne opravnenie alebo licenciu. Všetky príspevky sem vkladáte na vlastnú zodpovednost. Autor stránky odmieta akúkolvek zodpovednost za prípadne porušovanie zákonov. Kopírovanie obsahu bez písomného súhlasu autora stránky je trestné.
V prípade, že ste narazili na nelegálny obsah prosím okamžite kontaktujte administrátora portálu.



Powered by phpBB © 2005 phpBB Group :: Časy uvádzané v GMT + 1 hodina
[ Nacítanie: 0.1s ] :: [ 21 Queries ] :: [ 16,125 stránok za dnes ] :: [ Dnes DB: 301,298 ] :: [ Max DB: 13,059,503 ]