Obsah fóra www.lamky.net

lamky.net banner
Registrácia  •  Prihlásenie
 X-Files: I Want To Believe, the / 720p /EN Zobraziť nasledujúcu tému
Zobraziť predchádzajúcu tému

Pridat tému do záložiek
Odpovedať na tému Thank Post
Autor Správa
michaelreeve   
Pokročilý


Založený: 13.05.2011
Príspevky: 168
SMS donate: 0

PríspevokZaslal: Po Jan 02, 2012 23:59 pm Odpovedať s citátomCelkom dole

Akta X: Chci uvěřit / X-Files: I Want to Believe (2008)

Image


Linky sa zobrazia až po prihlásení. Prihlás sa
Chces vidieť plný obsah a nie si zaregistrovaný? Zaregistruj sa



Thriller / Mysteriózní / Drama / Sci-Fi
USA / Kanada, 2008, 104 min (Director's cut: 108 min)

Režie: Chris Carter
Hudba: Mark Snow
Hrají: David Duchovny, Gillian Anderson, Amanda Peet, Billy Connolly, Callum Keith Rennie, Xzibit, Adam Godley, Veronika Hadravá, Brent O'Connor, Vanesa Tomasino, Mitch Pileggi, Nicki Aycox, Carrie Ruscheinsky


Agenti FBI Mulder a Scullyová vyrážejí za dalším případem, jehož vyšetřování nás zavede do světa paranormálních jevů. Na příběh jako takový je zatím uvaleno informační embargo a ani z prvních zveřejněných záběrů není příliš jasné, čemu budou agenti na stopě tentokrát. Jasné ale je, že od posledního filmu uplynulo už 10 let a poslední televizní série se na obrazovkách objevila v roce 2002 a za tu dobu se svět okolo nás výrazně změnil. Stejně jako se změnili a zestárli naši hrdinové.



Linky sa zobrazia až po prihlásení. Prihlás sa
Chces vidieť plný obsah a nie si zaregistrovaný? Zaregistruj sa




Linky sa zobrazia až po prihlásení. Prihlás sa
Chces vidieť plný obsah a nie si zaregistrovaný? Zaregistruj sa
Zobrazit informácie o autoroviOdoslať súkromnú správu
Podakovania: marianko, je vdačný za túto tému.
edios   
Warezák


Založený: 20.09.2011
Príspevky: 268
SMS donate: 0

PríspevokZaslal: Št Mar 08, 2012 18:59 pm Odpovedať s citátomCelkom dole

Název: Akta X: Chci uvěřit / X-Files: I Want to Believe (2008)

Zdroj: X-Files.I.Want.to-Believe.2008.Bluray.1080p.DTS.x264.En.CZ

Image

Image


Image


Linky sa zobrazia až po prihlásení. Prihlás sa
Chces vidieť plný obsah a nie si zaregistrovaný? Zaregistruj sa


Image

Citácia:
Thriller / Mysteriózní / Drama / Sci-Fi
USA / Kanada, 2008, 104 min (Director's cut: 108 min)


CSFD 56 %
IMDb Rating 5.6


Režie: Chris Carter
Hudba: Mark Snow
Hrají: David Duchovny, Gillian Anderson, Amanda Peet, Billy Connolly, Callum Keith Rennie, Xzibit, Adam Godley, Veronika Hadravá, Brent O'Connor, Vanesa Tomasino, Mitch Pileggi, Nicki Aycox, Carrie Ruscheinsky


Agenti FBI Mulder a Scullyová vyrážejí za dalším případem, jehož vyšetřování nás zavede do světa paranormálních jevů. Na příběh jako takový je zatím uvaleno informační embargo a ani z prvních zveřejněných záběrů není příliš jasné, čemu budou agenti na stopě tentokrát. Jasné ale je, že od posledního filmu uplynulo už 10 let a poslední televizní série se na obrazovkách objevila v roce 2002 a za tu dobu se svět okolo nás výrazně změnil. Stejně jako se změnili a zestárli naši hrdinové.

Akta X patří mezi nejoblíbenější seriály všech dob. Natočeno bylo celkem devět samostatných televizních sérií, které slavily úspěch po celém světě. Jejich hlavní devizou byla silná dvojice hlavních postav, ve kterých začínali svou filmovou kariéru David Duchovny a Gillian Andersonová. Zatímco agent Mulder Davida Duchovneho byl vždy nakloněn teoriím, které odporovali zdravému rozumu, agentka Scullyová se řídila vědeckými poznatky. Jejich věčný souboj v krizových situacích, kdy bylo lehké podlehnout hysterii nebo paranoie, nás provedl tajnými experimenty americké vlády, mnoha vědecky nevysvětlitelnými úkazy a hlubinami často pochroumané, o to nebezpečnější lidské mysli.

Za filmem stojí stejný realizační tým jako za celým seriálem i prvním celovečerním filmem. Autoři slibují nečekané zvraty, ještě intenzivnější nesoulad mezi Muldrem a Scullyovou, kteří se znovu setkávají nad případem, jenž zcela narušil jejich životy, a hlavně víc napětí, než kdykoli předtím. (oficiální text distributora)


Complete name : D:\filmy download\Dsn.by.dadinek2.of.poweruploaders\Akta.X.Chci.uverit.1080p.Bluray.mkv
Format : Matroska
File size : 8.24 GiB
Duration : 1h 48mn
Overall bit rate : 10.9 Mbps
Encoded date : UTC 2009-01-01 13:10:43
Writing application : mkvmerge v2.4.0 ('Fumbling Towards Ecstasy') built on Oct 11 2008 20:13:15
Writing library : libebml v0.7.7 + libmatroska v0.8.1

Video
ID : 1
Format : AVC
Format/Info : Advanced Video Codec
Format profile : High@L4.1
Format settings, CABAC : Yes
Format settings, ReFrames : 5 frames
Muxing mode : Container profile=Unknown@4.1
Codec ID : V_MPEG4/ISO/AVC
Duration : 1h 48mn
Bit rate : 8 794 Kbps
Nominal bit rate : 9 008 Kbps
Width : 1 920 pixels
Height : 800 pixels
Display aspect ratio : 2.400
Frame rate : 23.976 fps
Resolution : 24 bits
Colorimetry : 4:2:0
Scan type : Progressive
Bits/(Pixel*Frame) : 0.239
Stream size : 6.64 GiB (81%)
Writing library : x264 core 65 r1056 e59ee24
Encoding settings : cabac=1 / ref=5 / deblock=1:0:0 / analyse=0x3:0x133 / me=umh / subme=7 / psy_rd=1.0:0.0 / mixed_ref=1 / me_range=16 / chroma_me=1 / trellis=1 / 8x8dct=1 / cqm=0 / deadzone=21,11 / chroma_qp_offset=-2 / threads=6 / nr=0 / decimate=1 / mbaff=0 / bframes=3 / b_pyramid=1 / b_adapt=1 / b_bias=0 / direct=1 / wpredb=1 / keyint=250 / keyint_min=25 / scenecut=40(pre) / rc=2pass / bitrate=9008 / ratetol=1.0 / qcomp=0.60 / qpmin=10 / qpmax=51 / qpstep=4 / cplxblur=20.0 / qblur=0.5 / ip_ratio=1.40 / pb_ratio=1.30 / aq=1:1.00

Audio #1
ID : 2
Format : AC-3
Format/Info : Audio Coding 3
Codec ID : A_AC3
Duration : 1h 48mn
Bit rate mode : Constant
Bit rate : 384 Kbps
Channel(s) : 6 channels
Channel positions : Front: L C R, Surround: L R, LFE
Sampling rate : 48.0 KHz
Video delay : 200ms
Stream size : 297 MiB (4%)
Language : Czech

Audio #2
ID : 3
Format : DTS
Format/Info : Digital Theater Systems
Codec ID : A_DTS
Duration : 1h 48mn
Bit rate mode : Constant
Bit rate : 1 510 Kbps
Channel(s) : 6 channels
Channel positions : Front: L C R, Surround: L R, LFE
Sampling rate : 48.0 KHz
Resolution : 24 bits
Stream size : 1.14 GiB (14%)
Language : English



Image

Image


Linky sa zobrazia až po prihlásení. Prihlás sa
Chces vidieť plný obsah a nie si zaregistrovaný? Zaregistruj sa


Image


Linky sa zobrazia až po prihlásení. Prihlás sa
Chces vidieť plný obsah a nie si zaregistrovaný? Zaregistruj sa


Image


Linky sa zobrazia až po prihlásení. Prihlás sa
Chces vidieť plný obsah a nie si zaregistrovaný? Zaregistruj sa



Image


Linky sa zobrazia až po prihlásení. Prihlás sa
Chces vidieť plný obsah a nie si zaregistrovaný? Zaregistruj sa
Zobrazit informácie o autoroviOdoslať súkromnú správu
miki7811   
Warezák


Založený: 10.06.2009
Príspevky: 5231
SMS donate: 0

PríspevokZaslal: So Máj 14, 2016 20:07 pm Odpovedať s citátomCelkom dole

Akta X: Chci uvěřit / The X-Files: I Want to Believe (2008)

Jazyk : CZ 5.1 AC3 / EN 5.1 DTS
Titulky : ne


X-Files.I.Want.to-Believe.2008.Bluray.1080p.DTS.x264.En.CZ

Image
CSFD

Linky sa zobrazia až po prihlásení. Prihlás sa
Chces vidieť plný obsah a nie si zaregistrovaný? Zaregistruj sa

MediaInfo

Linky sa zobrazia až po prihlásení. Prihlás sa
Chces vidieť plný obsah a nie si zaregistrovaný? Zaregistruj sa

Fastshare

Linky sa zobrazia až po prihlásení. Prihlás sa
Chces vidieť plný obsah a nie si zaregistrovaný? Zaregistruj sa

No Pass
Zobrazit informácie o autoroviOdoslať súkromnú správu
Sťahuj z HELLSHARE neobmedzene bez premium účtu!
Zobraziť príspevky z predchádzajúcich:      
Odpovedať na tému Thank Post


 Prejdi na:   



Zobraziť nasledujúcu tému
Zobraziť predchádzajúcu tému
Nemôžete odosielať nové témy do tohto fóra
Nemôžete odpovedať na témy v tomto fóre
Nemôžete upravovať svoje príspevky v tomto fóre
Nemôžete mazať svoje príspevky v tomto fóre
Nemôžete hlasovať v tomto fóre


Upozornenie: Žiadny zo zobrazovaných súborov sa nenachádza na tomto serveri. Autor stránky neberie žiadnu zodpovednost za príspevky odoslané uživatelmi. Nepoužívajte tieto stránky k distribúcii alebo k downloadu akýchkolvek materiálov, ku ktorým nemáte legálne opravnenie alebo licenciu. Všetky príspevky sem vkladáte na vlastnú zodpovednost. Autor stránky odmieta akúkolvek zodpovednost za prípadne porušovanie zákonov. Kopírovanie obsahu bez písomného súhlasu autora stránky je trestné.
V prípade, že ste narazili na nelegálny obsah prosím okamžite kontaktujte administrátora portálu.



Powered by phpBB © 2005 phpBB Group :: Časy uvádzané v GMT + 1 hodina
[ Nacítanie: 0.2s ] :: [ 23 Queries ] :: [ 19,764 stránok za dnes ] :: [ Dnes DB: 394,732 ] :: [ Max DB: 13,059,503 ]